Dolphin Tale 2011 CAM XViD-DTRG

iNFo:
http://www.imdb.com/title/tt1564349/
General
Complete name : Dolphin.Tale.2011.CAM.XViD-DTRG.avi
Format : AVI
Format/Info : Audio Video Interleave
File size : 1.12 GiB
Duration : 1h 43mn
Overall bit rate : 1 554 Kbps
Writing application : VirtualDubMod 1.5.10.2 (build 2540/release)
Writing library : VirtualDub build 32842/release

Video
ID : 0
Format : MPEG-4 Visual
Format profile : Advanced [email protected]
Format settings, BVOP : 2
Format settings, QPel : No
Format settings, GMC : No warppoints
Format settings, Matrix : Default (H.263)
Muxing mode : Packed bitstream
Codec ID : XVID
Codec ID/Hint : XviD
Duration : 1h 43mn
Bit rate : 1 416 Kbps
Width : 672 pixels
Height : 272 pixels
Display aspect ratio : 2.471
Frame rate : 25.000 fps
Color space : YUV
Chroma subsampling : 4:2:0
Bit depth : 8 bits
Scan type : Progressive
Compression mode : Lossy
Bits/(Pixel*Frame) : 0.310
Stream size : 1.02 GiB (91%)
Writing library : XviD 64

Audio
ID : 1
Format : MPEG Audio
Format version : Version 1
Format profile : Layer 3
Mode : Dual mono
Codec ID : 55
Codec ID/Hint : MP3
Duration : 1h 43mn
Bit rate mode : Constant
Bit rate : 128 Kbps
Channel(s) : 2 channels
Sampling rate : 32.0 KHz
Compression mode : Lossy
Delay relative to video : 18ms
Stream size : 94.8 MiB (8%)
Alignment : Split accross interleaves
Interleave, duration : 40 ms (1.00 video frame)
Interleave, preload duration : 500 ms


SAmPLe:
http://www.wupload.com/file/40077937...Sample.avi.rar
Or
http://www.filesonic.com/file/255125...Sample.avi.rar
Or
http://www.fileserve.com/file/EBYRfc...Sample.avi.rar

1-LINK:
http://www.wupload.com/file/40077605..._XViD_DTRG.rar
Or
http://www.filesonic.com/file/255125..._XViD_DTRG.rar
Or
http://www.fileserve.com/file/y5U8ua..._XViD_DTRG.rar

450mb-iNTERCHANGEABLE:
http://www.filesonic.com/file/255125....avi.part1.rar
http://www.filesonic.com/file/255125....avi.part2.rar
http://www.filesonic.com/file/255125....avi.part3.rar
Or
http://www.wupload.com/file/40079705....avi.part1.rar
http://www.wupload.com/file/40079443....avi.part2.rar
http://www.wupload.com/file/40079443....avi.part3.rar
Or
http://www.fileserve.com/file/4ukSpE....avi.part1.rar
http://www.fileserve.com/file/AuSfTX....avi.part2.rar
http://www.fileserve.com/file/mp9BfK....avi.part3.rar
Please-Say-Thanks-To-Keep-The-Topic-Alive.