The.River.Murders.2011.DVDRip.XVID.AC3.HQ.Hive-CM8



IMDB :
http://www.imdb.com/title/tt1738387/



Synopsis:
A homicide detective, Ray Liotta, while investigating a series of murders becomes the prime suspect when the FBI uncovers his close personal ties to all the victims.
Wupload :
http://www.wupload.com/file/40079709....avi.part1.rar
http://www.wupload.com/file/40079710....avi.part2.rar
http://www.wupload.com/file/40079708....avi.part3.rar
http://www.wupload.com/file/40079708....avi.part4.rar

Fileserve :
http://www.fileserve.com/file/jpbq9v....avi.part1.rar
http://www.fileserve.com/file/uGC3a2....avi.part2.rar
http://www.fileserve.com/file/9KSfv3....avi.part3.rar
http://www.fileserve.com/file/fz5hqD....avi.part4.rar

Filejungle :
http://www.filejungle.com/f/xnjD3k/T....avi.part1.rar
http://www.filejungle.com/f/yHGHG3/T....avi.part2.rar
http://www.filejungle.com/f/kWBexy/T....avi.part3.rar
http://www.filejungle.com/f/2r8Gqv/T....avi.part4.rar

Filesonic :
http://www.filesonic.com/file/255127....avi.part1.rar
http://www.filesonic.com/file/255126....avi.part2.rar
http://www.filesonic.com/file/255126....avi.part3.rar
http://www.filesonic.com/file/255126....avi.part4.rar

PLEASE REPLY IF YOU LIKE MY POST!

SCREENSHOT :


NFO :
General
Complete name : The.River.Murders.2011.DVDRip.XVID.AC3.HQ.Hive-CM8.avi
Format : AVI
Format/Info : Audio Video Interleave
File size : 1.45 GiB
Duration : 1h 32mn
Overall bit rate : 2 257 Kbps
Writing application : Nandub v1.0rc2
Writing library : Nandub build 1853/release

Video
ID : 0
Format : MPEG-4 Visual
Format profile : Advanced [email protected]
Format settings, BVOP : 2
Format settings, QPel : Yes
Format settings, GMC : No warppoints
Format settings, Matrix : Default (H.263)
Muxing mode : Packed bitstream
Codec ID : XVID
Codec ID/Hint : XviD
Duration : 1h 32mn
Bit rate : 1 799 Kbps
Width : 720 pixels
Height : 400 pixels
Display aspect ratio : 16:9
Frame rate : 23.976 fps
Color space : YUV
Chroma subsampling : 4:2:0
Bit depth : 8 bits
Scan type : Progressive
Compression mode : Lossy
Bits/(Pixel*Frame) : 0.261
Stream size : 1.16 GiB (80%)
Writing library : XviD 1.2.1 (UTC 2008-12-04)

Audio
ID : 1
Format : AC-3
Format/Info : Audio Coding 3
Mode extension : CM (complete main)
Codec ID : 2000
Duration : 1h 32mn
Bit rate mode : Constant
Bit rate : 448 Kbps
Channel(s) : 6 channels
Channel positions : Front: L C R, Side: L R, LFE
Sampling rate : 48.0 KHz
Bit depth : 16 bits
Compression mode : Lossy
Stream size : 296 MiB (20%)
Alignment : Split accross interleaves
Interleave, duration : 42 ms (1.00 video frame)
Interleave, preload duration : 500 ms