Snoop.Doggs.Hood.Of.Horror.2006.DVDRip.XviD.AC3-BHRG



IMDB :
http://www.imdb.com/title/tt0475298/



Synopsis:
A hip hop horror anthology of three tales of terror told by the Hound of Hell (Snoop Dogg) that revolve around the residents of an inner-city neighborhood whose actions determine where they will go in the afterlife.
Wupload :
http://www.wupload.com/file/40073463....avi.part1.rar
http://www.wupload.com/file/40073469....avi.part2.rar
http://www.wupload.com/file/40073469....avi.part3.rar
http://www.wupload.com/file/40073470....avi.part4.rar

Fileserve :
http://www.fileserve.com/file/uxA9VB....avi.part1.rar
http://www.fileserve.com/file/hkYNAJ....avi.part2.rar
http://www.fileserve.com/file/9TA5wM....avi.part3.rar
http://www.fileserve.com/file/eT3maR....avi.part4.rar

Filejungle :
http://www.filejungle.com/f/Sg6UUs/S....avi.part1.rar
http://www.filejungle.com/f/HUMRGX/S....avi.part2.rar
http://www.filejungle.com/f/HSu67E/S....avi.part3.rar
http://www.filejungle.com/f/6Yt8az/S....avi.part4.rar

Filesonic :
http://www.filesonic.com/file/255113....avi.part1.rar
http://www.filesonic.com/file/255114....avi.part2.rar
http://www.filesonic.com/file/255114....avi.part3.rar
http://www.filesonic.com/file/255114....avi.part4.rar

PLEASE REPLY IF YOU LIKE MY POST!

SCREENSHOT :


NFO :
General
Complete name : Snoop.Doggs.Hood.Of.Horror.2006.DVDRip.XviD.AC3-BHRG.avi
Format : AVI
Format/Info : Audio Video Interleave
File size : 1.36 GiB
Duration : 1h 24mn
Overall bit rate : 2 297 Kbps

Video
ID : 0
Format : MPEG-4 Visual
Format profile : Advanced [email protected]
Format settings, BVOP : 1
Format settings, QPel : No
Format settings, GMC : No warppoints
Format settings, Matrix : Default (H.263)
Muxing mode : Packed bitstream
Codec ID : XVID
Codec ID/Hint : XviD
Duration : 1h 24mn
Bit rate : 1 906 Kbps
Width : 720 pixels
Height : 400 pixels
Display aspect ratio : 16:9
Frame rate : 23.976 fps
Color space : YUV
Chroma subsampling : 4:2:0
Bit depth : 8 bits
Scan type : Progressive
Compression mode : Lossy
Bits/(Pixel*Frame) : 0.276
Stream size : 1.13 GiB (83%)
Writing library : XviD 1.2.1 (UTC 2008-12-04)

Audio
ID : 1
Format : AC-3
Format/Info : Audio Coding 3
Mode extension : CM (complete main)
Codec ID : 2000
Duration : 1h 24mn
Bit rate mode : Constant
Bit rate : 384 Kbps
Channel(s) : 6 channels
Channel positions : Front: L C R, Side: L R, LFE
Sampling rate : 48.0 KHz
Bit depth : 16 bits
Compression mode : Lossy
Stream size : 233 MiB (17%)
Alignment : Aligned on interleaves
Interleave, duration : 64 ms (1.53 video frames)
Interleave, preload duration : 192 ms
Title : VTS_03_1 T80 3_2ch 384Kbps DELAY 0ms