Jeff.Dunham.Controlled.Chaos.2011.DVDRIP.XVID.AC3-BHRG



IMDB :
http://www.imdb.com/title/tt2058636/



Synopsis:
Ventriloquist and comic Jeff Dunham takes to the stage to provide fresh comedic material with his classic puppets Walter, Peanut, Jose Jalapeño and Achmed, as well as with two never-before-seen characters with their own unique quirks.
Wupload :
http://www.wupload.com/file/39698084....avi.part1.rar
http://www.wupload.com/file/39698082....avi.part2.rar
http://www.wupload.com/file/39698086....avi.part3.rar
http://www.wupload.com/file/39698085....avi.part4.rar

Fileserve :
http://www.fileserve.com/file/Uuq9q5....avi.part1.rar
http://www.fileserve.com/file/YKbj9h....avi.part2.rar
http://www.fileserve.com/file/5DB5We....avi.part3.rar
http://www.fileserve.com/file/GuvKr9....avi.part4.rar

Filejungle :
http://www.filejungle.com/f/EvuqER/J....avi.part1.rar
http://www.filejungle.com/f/eFBQuW/J....avi.part2.rar
http://www.filejungle.com/f/D9GMVx/J....avi.part3.rar
http://www.filejungle.com/f/QeJ7gd/J....avi.part4.rar

Filesonic :
http://www.filesonic.com/file/254533....avi.part1.rar
http://www.filesonic.com/file/254533....avi.part2.rar
http://www.filesonic.com/file/254533....avi.part3.rar
http://www.filesonic.com/file/254533....avi.part4.rar

PLEASE REPLY IF YOU LIKE MY POST!

SCREENSHOT :


NFO :
General
Complete name : Jeff.Dunham.Controlled.Chaos.2011.DVDRIP.XVID.AC3-BHRG.avi
Format : AVI
Format/Info : Audio Video Interleave
File size : 1.36 GiB
Duration : 1h 37mn
Overall bit rate : 2 008 Kbps

Video
ID : 0
Format : MPEG-4 Visual
Format profile : Advanced [email protected]
Format settings, BVOP : 1
Format settings, QPel : No
Format settings, GMC : No warppoints
Format settings, Matrix : Default (H.263)
Muxing mode : Packed bitstream
Codec ID : XVID
Codec ID/Hint : XviD
Duration : 1h 37mn
Bit rate : 1 551 Kbps
Width : 720 pixels
Height : 400 pixels
Display aspect ratio : 16:9
Frame rate : 29.970 fps
Color space : YUV
Chroma subsampling : 4:2:0
Bit depth : 8 bits
Scan type : Progressive
Compression mode : Lossy
Bits/(Pixel*Frame) : 0.180
Stream size : 1.05 GiB (77%)
Writing library : XviD 1.2.1 (UTC 2008-12-04)

Audio
ID : 1
Format : AC-3
Format/Info : Audio Coding 3
Mode extension : CM (complete main)
Codec ID : 2000
Duration : 1h 37mn
Bit rate mode : Constant
Bit rate : 448 Kbps
Channel(s) : 6 channels
Channel positions : Front: L C R, Side: L R, LFE
Sampling rate : 48.0 KHz
Bit depth : 16 bits
Compression mode : Lossy
Stream size : 311 MiB (22%)
Alignment : Aligned on interleaves
Interleave, duration : 64 ms (1.92 video frames)
Interleave, preload duration : 192 ms
Title : VTS_08_1 T82 3_2ch 448Kbps DELAY 0ms