Cars 2 2011 BRRip XViD-DTRG



IMDB :
http://www.imdb.com/title/tt1216475/



Synopsis:
Star racecar Lightning McQueen (voice of Owen Wilson) and the incomparable tow truck Mater (voice of Larry the Cable Guy) take their friendship to exciting new places in ‘Cars 2′ when they head overseas to compete in the first-ever World Grand Prix to determine the world’s fastest car. But the road to the championship is filled with plenty of potholes, detours and hilarious surprises when Mater gets caught up in an intriguing adventure of his own: international espionage. Torn between assisting Lightning McQueen in the high-profile race and towing the line in a top-secret spy mission, Mater’s action-packed journey leads him on an explosive chase through the streets of Japan and Europe, trailed by his friends and watched by the whole world. Adding to the fast-paced fun is a colorful new all-car cast that includes secret agents, menacing villains and international racing competitors.
Wupload :
http://www.wupload.com/file/39514639....avi.part1.rar
http://www.wupload.com/file/39514640....avi.part2.rar
http://www.wupload.com/file/39514639....avi.part3.rar
http://www.wupload.com/file/39514638....avi.part4.rar

Fileserve :
http://www.fileserve.com/file/VtsMVT....avi.part1.rar
http://www.fileserve.com/file/czP67J....avi.part2.rar
http://www.fileserve.com/file/rKJsAu....avi.part3.rar
http://www.fileserve.com/file/cxQaKj....avi.part4.rar

Filejungle :
http://www.filejungle.com/f/y8ZzmT/C....avi.part1.rar
http://www.filejungle.com/f/pwPEft/C....avi.part2.rar
http://www.filejungle.com/f/kGDUs3/C....avi.part3.rar
http://www.filejungle.com/f/JV7hfb/C....avi.part4.rar

Filesonic :
http://www.filesonic.com/file/254475....avi.part1.rar
http://www.filesonic.com/file/254475....avi.part2.rar
http://www.filesonic.com/file/254475....avi.part3.rar
http://www.filesonic.com/file/254475....avi.part4.rar

PLEASE REPLY IF YOU LIKE MY POST!

SCREENSHOT :


NFO :
General
Complete name : Cars.2.2011.BRRip.XViD-DTRG.avi
Format : AVI
Format/Info : Audio Video Interleave
File size : 1.76 GiB
Duration : 1h 40mn
Overall bit rate : 2 516 Kbps
Writing application : VirtualDubMod 1.5.10.2 (build 2540/release)
Writing library : VirtualDubMod build 2540/release

Video
ID : 0
Format : MPEG-4 Visual
Format profile : Advanced [email protected]
Format settings, BVOP : 2
Format settings, QPel : No
Format settings, GMC : No warppoints
Format settings, Matrix : Default (H.263)
Muxing mode : Packed bitstream
Codec ID : XVID
Codec ID/Hint : XviD
Duration : 1h 40mn
Bit rate : 2 123 Kbps
Width : 720 pixels
Height : 304 pixels
Display aspect ratio : 2.35:1
Frame rate : 23.976 fps
Color space : YUV
Chroma subsampling : 4:2:0
Bit depth : 8 bits
Scan type : Progressive
Compression mode : Lossy
Bits/(Pixel*Frame) : 0.404
Stream size : 1.48 GiB (84%)
Writing library : XviD 64

Audio
ID : 1
Format : AC-3
Format/Info : Audio Coding 3
Mode extension : CM (complete main)
Codec ID : 2000
Duration : 1h 40mn
Bit rate mode : Constant
Bit rate : 384 Kbps
Channel(s) : 6 channels
Channel positions : Front: L C R, Side: L R, LFE
Sampling rate : 48.0 KHz
Bit depth : 16 bits
Compression mode : Lossy
Stream size : 275 MiB (15%)
Alignment : Aligned on interleaves
Interleave, duration : 42 ms (1.00 video frame)
Interleave, preload duration : 512 ms