The Howling Reborn 2011 BRRip XviD AC3-EMBER

iNFo:
http://www.imdb.com/title/tt1554092/
General
Format : AVI
Format/Info : Audio Video Interleave
File size : 1.41 GiB
Duration : 1h 32mn
Overall bit rate : 2 188 Kbps
Writing application : VirtualDubMod 1.5.10.2 (build 2540/release)
Writing library : VirtualDubMod build 2540/release

Video
ID : 0
Format : MPEG-4 Visual
Format profile : Advanced [email protected]
Format settings, BVOP : 2
Format settings, QPel : No
Format settings, GMC : No warppoints
Format settings, Matrix : Default (H.263)
Muxing mode : Packed bitstream
Codec ID : XVID
Codec ID/Hint : XviD
Duration : 1h 32mn
Bit rate : 1 795 Kbps
Width : 720 pixels
Height : 400 pixels
Display aspect ratio : 16:9
Frame rate : 23.976 fps
Color space : YUV
Chroma subsampling : 4:2:0
Bit depth : 8 bits
Scan type : Progressive
Compression mode : Lossy
Bits/(Pixel*Frame) : 0.260
Stream size : 1.15 GiB (82%)
Writing library : XviD 64

Audio
ID : 1
Format : AC-3
Format/Info : Audio Coding 3
Mode extension : CM (complete main)
Codec ID : 2000
Duration : 1h 32mn
Bit rate mode : Constant
Bit rate : 384 Kbps
Channel(s) : 6 channels
Channel positions : Front: L C R, Side: L R, LFE
Sampling rate : 48.0 KHz
Bit depth : 16 bits
Compression mode : Lossy
Stream size : 253 MiB (18%)
Alignment : Split accross interleaves
Interleave, duration : 42 ms (1.00 video frame)
Interleave, preload duration : 500 ms



1-LINK:
http://www.wupload.com/file/389045255/EMBER-THR.avi
Or
http://www.filesonic.com/file/2543481214/EMBER-THR.rar
Or
http://www.fileserve.com/file/sQxnn2M/EMBER-THR.rar

450mb-iNTERCHANGEABLE:
http://www.wupload.com/file/39036423....avi.part1.rar
http://www.wupload.com/file/39036423....avi.part2.rar
http://www.wupload.com/file/39035789....avi.part3.rar
http://www.wupload.com/file/39035789....avi.part4.rar
Or
http://www.filesonic.com/file/254345....avi.part1.rar
http://www.filesonic.com/file/254345....avi.part2.rar
http://www.filesonic.com/file/254345....avi.part3.rar
http://www.filesonic.com/file/254345....avi.part4.rar
Or
http://www.fileserve.com/file/ba3Crh....avi.part1.rar
http://www.fileserve.com/file/MVKEvm....avi.part2.rar
http://www.fileserve.com/file/3DPMNU....avi.part3.rar
http://www.fileserve.com/file/z9a6H9....avi.part4.rar
Please-Say-Thanks-To-Keep-The-Topic-Alive.