7.Lives.2011.DVDRip.Xvid-P2P



IMDB :
http://www.imdb.com/title/tt1558246/



Synopsis:
Tom, a married man with kids, is struggling at work when a client tries to seduce him with promises of a ‘more exciting life’. On his way home one night he gets attacked by a gang of hoodies and falls into a parallel world where he lives 5 other lives including a Rock-Star, a Homeless person and the ‘hoody’ that attacked him. These lives help him to re-evaluate his priorities and values but in order to get home he must face some of his deepest desires and fears. Will he make it home or is the grass greener on the other side?
Wupload :
http://www.wupload.com/file/38251701....avi.part1.rar
http://www.wupload.com/file/38253740....avi.part2.rar
http://www.wupload.com/file/38254792....avi.part3.rar

Fileserve :
http://www.fileserve.com/file/Ba9DpK....avi.part1.rar
http://www.fileserve.com/file/rB2QFU....avi.part2.rar
http://www.fileserve.com/file/UM2Qt3....avi.part3.rar

Filejungle :
http://www.filejungle.com/f/F3HcES/7....avi.part1.rar
http://www.filejungle.com/f/KUPsDx/7....avi.part2.rar
http://www.filejungle.com/f/FTprSW/7....avi.part3.rar

Filesonic :
http://www.filesonic.com/file/253567....avi.part1.rar
http://www.filesonic.com/file/253569....avi.part2.rar
http://www.filesonic.com/file/253571....avi.part3.rar

PLEASE REPLY IF YOU LIKE MY POST!

SCREENSHOT :


NFO :
General
Complete name : 7.Lives.2011.DVDRip.Xvid-P2P.avi
Format : AVI
Format/Info : Audio Video Interleave
Format profile : OpenDML
File size : 1.01 GiB
Duration : 1h 35mn
Overall bit rate : 1 521 Kbps
Movie name : 7LIVES.Title2.DVDRip
Writing application : Lavf52.78.4
Original source form/Name : 7LIVES

Video
ID : 0
Format : MPEG-4 Visual
Format profile : Advanced [email protected]
Format settings, BVOP : 2
Format settings, QPel : No
Format settings, GMC : No warppoints
Format settings, Matrix : Default (H.263)
Muxing mode : Packed bitstream
Codec ID : DX50
Codec ID/Hint : DivX 5
Duration : 1h 35mn
Bit rate : 91.8 Kbps
Width : 720 pixels
Height : 406 pixels
Display aspect ratio : 16:9
Frame rate : 25.000 fps
Color space : YUV
Chroma subsampling : 4:2:0
Bit depth : 8 bits
Scan type : Progressive
Compression mode : Lossy
Bits/(Pixel*Frame) : 0.013
Stream size : 62.7 MiB (6%)
Writing library : XviD 1.2.1 (UTC 2008-12-04)

Audio
ID : 1
Format : MPEG Audio
Format version : Version 1
Format profile : Layer 3
Mode : Joint stereo
Mode extension : MS Stereo
Codec ID : 55
Codec ID/Hint : MP3
Duration : 1h 35mn
Bit rate mode : Constant
Bit rate : 64.0 Kbps
Channel(s) : 2 channels
Sampling rate : 48.0 KHz
Compression mode : Lossy
Stream size : 223 KiB (0%)
Alignment : Aligned on interleaves
Interleave, duration : 301 ms (7.52 video frames)