CockHammer 2009 DVDRip-TiCTaC



IMDB :
http://www.imdb.com/title/tt1436347/



Synopsis:
CockHammer is the story of Terrence and Perander, two pill popping,swinger losers who’s girlfriends are mysteriously kidnapped by CockHammer, a snuff porn kingpin and occult sorcerer bent on unlocking the secrets of the dreaded black mage diary! Will Terrence and Perander figure out his heinous intentions and rescue their bitches in time to get their assholes fucked, or will the girls become the latest victims in CockHammer’s elaborate plot to become a demigod?!
Wupload :
http://www.wupload.com/file/38221306...TiCTaC.avi.rar

Fileserve :
http://www.fileserve.com/file/tNNRnq...TiCTaC.avi.rar

Filejungle :
http://www.filejungle.com/f/bWwNEc/C...TiCTaC.avi.rar

Filesonic :
http://www.filesonic.com/file/253509...TiCTaC.avi.rar

PLEASE REPLY IF YOU LIKE MY POST!

SCREENSHOT :


NFO :
General
Complete name : G:\CockHammer 2009 DVDRip TiCTac\CockHammer 2009 DVDRip TiCTac.avi
Format : AVI
Format/Info : Audio Video Interleave
File size : 997 MiB
Duration : 1h 22mn
Overall bit rate : 1 696 Kbps
Writing application : Lavf52.13.0
Writing library : VirtualDub build 32842/release

Video
ID : 0
Format : MPEG-4 Visual
Format profile : [email protected]
Format settings, BVOP : No
Format settings, QPel : No
Format settings, GMC : No warppoints
Format settings, Matrix : Default (H.263)
Codec ID : XVID
Codec ID/Hint : XviD
Duration : 1h 22mn
Bit rate : 1 492 Kbps
Width : 720 pixels
Height : 432 pixels
Display aspect ratio : 16:9
Frame rate : 25.000 fps
Color space : YUV
Chroma subsampling : 4:2:0
Bit depth : 8 bits
Scan type : Progressive
Compression mode : Lossy
Bits/(Pixel*Frame) : 0.192
Stream size : 877 MiB (88%)
Writing library : Lavc51.54.0

Audio
ID : 1
Format : MPEG Audio
Format version : Version 1
Format profile : Layer 3
Mode : Joint stereo
Mode extension : MS Stereo
Codec ID : 55
Codec ID/Hint : MP3
Duration : 1h 22mn
Bit rate mode : Constant
Bit rate : 192 Kbps
Channel(s) : 2 channels
Sampling rate : 44.1 KHz
Compression mode : Lossy
Stream size : 113 MiB (11%)
Alignment : Aligned on interleaves
Interleave, duration : 26 ms (0.65 video frame)
Interleave, preload duration : 522 ms
Writing library : LAME3.98 (beta)