CockHammer 2009 DVDRip-TiCTaC

iNFo:
http://www.imdb.com/title/tt1436347/
#
Complete name : G:\CockHammer 2009 DVDRip TiCTac\CockHammer 2009 DVDRip TiCTac.avi
#
Format : AVI
#
Format/Info : Audio Video Interleave
#
File size : 997 MiB
#
Duration : 1h 22mn
#
Overall bit rate : 1 696 Kbps
#
Writing application : Lavf52.13.0
#
Writing library : VirtualDub build 32842/release
#

#
Video
#
ID : 0
#
Format : MPEG-4 Visual
#
Format profile : [email protected]
#
Format settings, BVOP : No
#
Format settings, QPel : No
#
Format settings, GMC : No warppoints
#
Format settings, Matrix : Default (H.263)
#
Codec ID : XVID
#
Codec ID/Hint : XviD
#
Duration : 1h 22mn
#
Bit rate : 1 492 Kbps
#
Width : 720 pixels
#
Height : 432 pixels
#
Display aspect ratio : 16:9
#
Frame rate : 25.000 fps
#
Color space : YUV
#
Chroma subsampling : 4:2:0
#
Bit depth : 8 bits
#
Scan type : Progressive
#
Compression mode : Lossy
#
Bits/(Pixel*Frame) : 0.192
#
Stream size : 877 MiB (88%)
#
Writing library : Lavc51.54.0
#

#
Audio
#
ID : 1
#
Format : MPEG Audio
#
Format version : Version 1
#
Format profile : Layer 3
#
Mode : Joint stereo
#
Mode extension : MS Stereo
#
Codec ID : 55
#
Codec ID/Hint : MP3
#
Duration : 1h 22mn
#
Bit rate mode : Constant
#
Bit rate : 192 Kbps
#
Channel(s) : 2 channels
#
Sampling rate : 44.1 KHz
#
Compression mode : Lossy
#
Stream size : 113 MiB (11%)
#
Alignment : Aligned on interleaves
#
Interleave, duration : 26 ms (0.65 video frame)
#
Interleave, preload duration : 522 ms
#
Writing library : LAME3.98 (beta)


1-LINK:
http://www.wupload.com/file/37876158...Rip-TiCTaC.avi
Or
http://www.filesonic.com/file/253017...TiCTaC.avi.rar
Or
http://www.fileserve.com/file/pKmfkK...Rip-TiCTaC.avi
Please-Say-Thanks-To-Keep-The-Topic-Alive.