Everywhere and Nowhere 2011 DVDRIp Xvid-THC



IMDB :
http://www.imdb.com/title/tt1673374/



Synopsis:
Plot: A drama centered on a British Asian torn between honoring his family traditions and his love for DJing.
Wupload :
http://www.wupload.com/file/37644840....avi.part1.rar
http://www.wupload.com/file/37645110....avi.part2.rar

Fileserve :
http://www.fileserve.com/file/99sGQY....avi.part1.rar
http://www.fileserve.com/file/F4TD8M....avi.part2.rar

Filejungle :
http://www.filejungle.com/f/GjZtN5/E....avi.part1.rar
http://www.filejungle.com/f/9NhAMk/E....avi.part2.rar

Filesonic :
http://www.filesonic.com/file/251858....avi.part1.rar
http://www.filesonic.com/file/251860....avi.part2.rar

PLEASE REPLY IF YOU LIKE MY POST!

SCREENSHOT :


NFO :
General
Complete name : Everywhere.and.Nowhere.2011.DVDRIp.Xvid-THC.avi
Format : AVI
Format/Info : Audio Video Interleave
File size : 1.40 GiB
Duration : 1h 32mn
Overall bit rate : 2 167 Kbps

Video
ID : 0
Format : MPEG-4 Visual
Format profile : Advanced [email protected]
Format settings, BVOP : 2
Format settings, QPel : Yes
Format settings, GMC : No warppoints
Format settings, Matrix : Default (H.263)
Codec ID : XVID
Codec ID/Hint : XviD
Duration : 1h 32mn
Bit rate : 1 712 Kbps
Width : 720 pixels
Height : 304 pixels
Display aspect ratio : 2.35:1
Frame rate : 25.000 fps
Color space : YUV
Chroma subsampling : 4:2:0
Bit depth : 8 bits
Scan type : Progressive
Compression mode : Lossy
Bits/(Pixel*Frame) : 0.313
Stream size : 1.10 GiB (79%)
Writing library : XviD 1.2.1 (UTC 2008-12-04)

Audio
ID : 1
Format : AC-3
Format/Info : Audio Coding 3
Mode extension : CM (complete main)
Codec ID : 2000
Duration : 1h 32mn
Bit rate mode : Constant
Bit rate : 448 Kbps
Channel(s) : 6 channels
Channel positions : Front: L C R, Side: L R, LFE
Sampling rate : 48.0 KHz
Bit depth : 16 bits
Compression mode : Lossy
Stream size : 296 MiB (21%)
Alignment : Aligned on interleaves
Interleave, duration : 64 ms (1.60 video frames)
Interleave, preload duration : 192 ms
Title : VTS_01_1 T81 3_2ch 448Kbps DELAY 0ms_new