Flypaper.2011.LIMITED.BRRIP.XviD.AbSurdiTy



IMDB :
http://www.imdb.com/title/tt1541160/



Synopsis:
Plot: A man caught in the middle of two simultaneous robberies at the same bank desperately tries to protect the teller with whom he’s secretly in love.
Wupload :
http://www.wupload.com/file/37688478...urdiTy.avi.rar

Fileserve :
http://www.fileserve.com/file/WdNUPb...urdiTy.avi.rar

Filejungle :
http://www.filejungle.com/f/J5vGz7/F...urdiTy.avi.rar

Filesonic :
http://www.filesonic.com/file/251868...urdiTy.avi.rar

PLEASE REPLY IF YOU LIKE MY POST!

SCREENSHOT :


NFO :
General
Complete name : Flypaper.2011.LIMITED.BRRIP.XviD.AbSurdiTy.avi
Format : AVI
Format/Info : Audio Video Interleave
File size : 703 MiB
Duration : 1h 27mn
Overall bit rate : 1 126 Kbps
Writing library : VirtualDub build 32842/release

Video
ID : 0
Format : MPEG-4 Visual
Format profile : Advanced [email protected]
Format settings, BVOP : 4
Format settings, QPel : No
Format settings, GMC : No warppoints
Format settings, Matrix : Default (H.263)
Muxing mode : Packed bitstream
Codec ID : XVID
Codec ID/Hint : XviD
Duration : 1h 27mn
Bit rate : 988 Kbps
Width : 672 pixels
Height : 288 pixels
Display aspect ratio : 2.35:1
Frame rate : 23.976 fps
Color space : YUV
Chroma subsampling : 4:2:0
Bit depth : 8 bits
Scan type : Progressive
Compression mode : Lossy
Bits/(Pixel*Frame) : 0.213
Stream size : 617 MiB (88%)
Writing library : XviD 64

Audio
ID : 1
Format : MPEG Audio
Format version : Version 1
Format profile : Layer 3
Codec ID : 55
Codec ID/Hint : MP3
Duration : 1h 27mn
Bit rate mode : Constant
Bit rate : 128 Kbps
Channel(s) : 2 channels
Sampling rate : 48.0 KHz
Compression mode : Lossy
Stream size : 79.9 MiB (11%)
Alignment : Split accross interleaves
Interleave, duration : 42 ms (1.00 video frame)
Interleave, preload duration : 500 ms
Writing library : LAMELAME_MAJOR_VERSI