Flypaper 2011 BRRip Ac3 Xvid TCM



IMDB :
http://www.imdb.com/title/tt1541160/



Synopsis:
A man caught in the middle of two simultaneous robberies at the same bank desperately tries to protect the teller with whom he’s secretly in love.
Wupload :
http://www.wupload.com/file/37356540....avi.part1.rar
http://www.wupload.com/file/37362398....avi.part2.rar

Fileserve :
http://www.fileserve.com/file/f5KC8v....avi.part1.rar
http://www.fileserve.com/file/Qn3Cgm....avi.part2.rar

Filejungle :
http://www.filejungle.com/f/HzTTxu/F....avi.part1.rar
http://www.filejungle.com/f/jURh55/F....avi.part2.rar

Filesonic :
http://www.filesonic.com/file/251683....avi.part1.rar
http://www.filesonic.com/file/251684....avi.part2.rar

PLEASE REPLY IF YOU LIKE MY POST!

SCREENSHOT :


NFO :
General
Complete name : F.BR.TCM.avi
Format : AVI
Format/Info : Audio Video Interleave
File size : 1.36 GiB
Duration : 1h 27mn
Overall bit rate : 2 227 Kbps
Movie name : F.BR.TCM
Writing application : VirtualDub build 32842/release
Copyright : TCM

Video
ID : 0
Format : MPEG-4 Visual
Format profile : Advanced [email protected]
Format settings, BVOP : 2
Format settings, QPel : No
Format settings, GMC : No warppoints
Format settings, Matrix : Default (H.263)
Muxing mode : Packed bitstream
Codec ID : XVID
Codec ID/Hint : XviD
Duration : 1h 27mn
Bit rate : 1 706 Kbps
Width : 720 pixels
Height : 304 pixels
Display aspect ratio : 2.35:1
Frame rate : 23.976 fps
Color space : YUV
Chroma subsampling : 4:2:0
Bit depth : 8 bits
Scan type : Progressive
Compression mode : Lossy
Bits/(Pixel*Frame) : 0.325
Stream size : 1.04 GiB (77%)
Writing library : XviD 1.2.1 (UTC 2008-12-04)

Audio
ID : 1
Format : AC-3
Format/Info : Audio Coding 3
Mode extension : CM (complete main)
Codec ID : 2000
Duration : 1h 27mn
Bit rate mode : Constant
Bit rate : 512 Kbps
Channel(s) : 2 channels
Channel positions : Front: L R
Sampling rate : 48.0 KHz
Bit depth : 16 bits
Compression mode : Lossy
Stream size : 319 MiB (23%)
Alignment : Aligned on interleaves
Interleave, duration : 42 ms (1.00 video frame)
Interleave, preload duration : 512 ms
Language : un