Red.State.2011.720p.BRRip.XviD.AC3-FLAWL3SS



IMDB :
http://www.imdb.com/title/tt0873886/



Synopsis:
Kevin Smith steps his foot into horror territory with this politically tinged fright flick starring Michael Parks (From Dusk Till Dawn, Grindhouse) as a controversial Fred Phelps-ish reverend who brings his own brand of zealotry to a wayward group of teens. Smith directs from his own long-in-development script.
Wupload :
http://www.wupload.com/file/37234396....avi.part1.rar
http://www.wupload.com/file/37234751....avi.part2.rar
http://www.wupload.com/file/37234791....avi.part3.rar

Fileserve :
http://www.fileserve.com/file/4dVcGU....avi.part1.rar
http://www.fileserve.com/file/rCMKjV....avi.part2.rar
http://www.fileserve.com/file/5h48wd....avi.part3.rar

Filejungle :
http://www.filejungle.com/f/w57Qy5/R....avi.part1.rar
http://www.filejungle.com/f/2dbZhf/R....avi.part2.rar
http://www.filejungle.com/f/ruhCSr/R....avi.part3.rar

Filesonic :
http://www.filesonic.com/file/251546....avi.part1.rar
http://www.filesonic.com/file/251547....avi.part2.rar
http://www.filesonic.com/file/251547....avi.part3.rar

PLEASE REPLY IF YOU LIKE MY POST!

SCREENSHOT :


NFO :
General
Complete name : Red.State.2011.720p.BRRip.XviD.AC3-FLAWL3SS.avi
Format : AVI
Format/Info : Audio Video Interleave
Format profile : OpenDML
File size : 2.64 GiB
Duration : 1h 28mn
Overall bit rate : 4 263 Kbps
Writing application : VirtualDubMod 1.5.10.3 | www.virtualdub-fr.org || (build 2550/release)
Writing library : VirtualDubMod build 2550/release

Video
ID : 0
Format : MPEG-4 Visual
Format profile : Advanced [email protected]
Format settings, BVOP : 2
Format settings, QPel : No
Format settings, GMC : No warppoints
Format settings, Matrix : Default (H.263)
Muxing mode : Packed bitstream
Codec ID : XVID
Codec ID/Hint : XviD
Duration : 1h 28mn
Bit rate : 3 804 Kbps
Width : 1 280 pixels
Height : 688 pixels
Display aspect ratio : 1.860
Frame rate : 23.976 fps
Color space : YUV
Chroma subsampling : 4:2:0
Bit depth : 8 bits
Scan type : Progressive
Compression mode : Lossy
Bits/(Pixel*Frame) : 0.180
Stream size : 2.35 GiB (89%)
Writing library : XviD 1.2.1 (UTC 2008-12-04)

Audio
ID : 1
Format : AC-3
Format/Info : Audio Coding 3
Mode extension : CM (complete main)
Codec ID : 2000
Duration : 1h 28mn
Bit rate mode : Constant
Bit rate : 448 Kbps
Channel(s) : 6 channels
Channel positions : Front: L C R, Side: L R, LFE
Sampling rate : 48.0 KHz
Bit depth : 16 bits
Compression mode : Lossy
Stream size : 284 MiB (11%)
Alignment : Split accross interleaves
Interleave, duration : 42 ms (1.00 video frame)
Interleave, preload duration : 500 ms