Abnormal.Activity.2010.DVDRip.XviD-UnKnowN



IMDB :
http://www.imdb.com/title/tt1686303/



Synopsis:
In this hilarious in-your-face mockumentary spoof on the handheld movie genre, nothing is what you would expect, or is it? No matter how stupid or boring the footage becomes, Roger and Stacey videotape everything in hopes of seeing the spirits in action. Will they end up with a hit documentary, or will they find what ends up on tape is far worse than demonic activity?
Single Wupload :
http://www.wupload.com/file/358972987/aaUnknowN.avi.rar

Single Fileserve :
http://www.fileserve.com/file/SbFQhGX/aaUnknowN.avi.rar

Single Filejungle :
http://www.filejungle.com/f/D3t2N7/aaUnknowN.avi.rar

Single Filesonic :
http://www.filesonic.com/file/249810...nknowN.avi.rar

PLEASE REPLY IF YOU LIKE MY POST!

SCREENSHOT :


NFO :
General
Complete name : aaUnknowN.avi
Format : AVI
Format/Info : Audio Video Interleave
File size : 976 MiB
Duration : 1h 31mn
Overall bit rate : 1 488 Kbps
Writing application : MEncoder SVN-r29352(20090610-gcc4.3.3)
Writing library : VirtualDub build 32817/release

Video
ID : 0
Format : MPEG-4 Visual
Format profile : Advanced [email protected]
Format settings, BVOP : 1
Format settings, QPel : No
Format settings, GMC : No warppoints
Format settings, Matrix : Custom
Codec ID : XVID
Codec ID/Hint : XviD
Duration : 1h 31mn
Bit rate : 1 095 Kbps
Width : 680 pixels
Height : 368 pixels
Display aspect ratio : 16:9
Frame rate : 25.000 fps
Color space : YUV
Chroma subsampling : 4:2:0
Bit depth : 8 bits
Scan type : Progressive
Compression mode : Lossy
Bits/(Pixel*Frame) : 0.175
Stream size : 718 MiB (74%)
Writing library : XviD 1.2.1 (UTC 2008-12-04)

Audio
ID : 1
Format : AC-3
Format/Info : Audio Coding 3
Mode extension : CM (complete main)
Codec ID : 2000
Duration : 1h 31mn
Bit rate mode : Constant
Bit rate : 384 Kbps
Channel(s) : 6 channels
Channel positions : Front: L C R, Side: L R, LFE
Sampling rate : 48.0 KHz
Bit depth : 16 bits
Compression mode : Lossy
Stream size : 252 MiB (26%)
Alignment : Aligned on interleaves
Interleave, duration : 40 ms (1.00 video frame)
Interleave, preload duration : 512 ms