Faces.in.the.Crowd.2011.BDRip.XVID.AC3.HQ.Hive-CM8



IMDB :
http://www.imdb.com/title/tt1536410/



Synopsis:
A serial killer has been terrorizing the city. An innocent bystander (Milla) witnesses his latest attack, but while fleeing, she falls from a bridge and is knocked unconscious. When she awakes in the hospital, she can’t recognize family, her boyfriend or even her own face in the mirror. She is diagnosed with prosopagnosia, or ‘face blindness’. This is a real neurological disorder, like dyslexia but with faces, caused by a lesion of the temporal lobe, the part of the brain that allows us in a heartbeat to compare someone’s face with all the faces stored in our memory. She is incapable of recognizing the same face twice. Every time she looks at someone, it’s like she’s never met them before. Being the only witness, she is hunted by the killer, leaving her paranoid in a sea of unfamiliar faces. Where can she turn? Who can she trust? Who is she waking up next to? Who is standing next to her? This suspense thriller takes us on a terrifying ride thru the blurry eyes of a woman searching for a monster amongst the faces in the crowd.
Wupload :
http://www.wupload.com/file/35706365....avi.part1.rar
http://www.wupload.com/file/35706478....avi.part2.rar

Fileserve :
http://www.fileserve.com/file/uTRSTV....avi.part1.rar
http://www.fileserve.com/file/7FbyqZ....avi.part2.rar

Filejungle :
http://www.filejungle.com/f/KkyFhb/F....avi.part1.rar
http://www.filejungle.com/f/r7K4pW/F....avi.part2.rar

Filesonic :
http://www.filesonic.com/file/247315....avi.part1.rar
http://www.filesonic.com/file/247317....avi.part2.rar

PLEASE REPLY IF YOU LIKE MY POST!

SCREENSHOT :


NFO :
General
Complete name : Faces.in.the.Crowd.2011.BDRip.XVID.AC3.HQ.Hive-CM8.avi
Format : AVI
Format/Info : Audio Video Interleave
File size : 1.62 GiB
Duration : 1h 42mn
Overall bit rate : 2 268 Kbps
Writing application : Nandub v1.0rc2
Writing library : Nandub build 1853/release

Video
ID : 0
Format : MPEG-4 Visual
Format profile : Advanced [email protected]
Format settings, BVOP : 1
Format settings, QPel : Yes
Format settings, GMC : No warppoints
Format settings, Matrix : Default (H.263)
Muxing mode : Packed bitstream
Codec ID : XVID
Codec ID/Hint : XviD
Duration : 1h 42mn
Bit rate : 1 810 Kbps
Width : 720 pixels
Height : 304 pixels
Display aspect ratio : 2.40:1
Frame rate : 23.976 fps
Color space : YUV
Chroma subsampling : 4:2:0
Bit depth : 8 bits
Scan type : Progressive
Compression mode : Lossy
Bits/(Pixel*Frame) : 0.345
Stream size : 1.30 GiB (80%)
Writing library : XviD 1.2.1 (UTC 2008-12-04)

Audio
ID : 1
Format : AC-3
Format/Info : Audio Coding 3
Mode extension : CM (complete main)
Codec ID : 2000
Duration : 1h 42mn
Bit rate mode : Constant
Bit rate : 448 Kbps
Channel(s) : 6 channels
Channel positions : Front: L C R, Side: L R, LFE
Sampling rate : 48.0 KHz
Bit depth : 16 bits
Compression mode : Lossy
Stream size : 329 MiB (20%)
Alignment : Split accross interleaves
Interleave, duration : 42 ms (1.00 video frame)
Interleave, preload duration : 500 ms