Flypaper.2011.DVDRiP.XviD.AC3-iLLUSiON



IMDB :
http://www.imdb.com/title/tt1541160/



Synopsis:
A man caught in the middle of two simultaneous robberies at the same bank desperately tries to protect the teller with whom he’s secretly in love.
Wupload :
http://www.wupload.com/file/34152656....avi.part1.rar
http://www.wupload.com/file/34165533....avi.part2.rar

Fileserve :
http://www.fileserve.com/file/dFe5BD....avi.part2.rar
http://www.fileserve.com/file/7tS6Cs....avi.part1.rar

Filejungle :
http://www.filejungle.com/f/2pTvkS/F....avi.part1.rar
http://www.filejungle.com/f/cmEPrD/F....avi.part2.rar

Filesonic :
http://www.filesonic.com/file/240581....avi.part1.rar
http://www.filesonic.com/file/240577....avi.part2.rar

PLEASE REPLY IF YOU LIKE MY POST!

SCREENSHOT :


NFO :
General
Complete name : The.Hangover.Part.II.2011.PPVRip.XviD-SceneLovers.avi
Format : AVI
Format/Info : Audio Video Interleave
File size : 695 MiB
Duration : 1h 41mn
Overall bit rate : 955 Kbps
Writing application : VirtualDubMod 1.5.10.2 (build 2542/release)
Writing library : VirtualDubMod build 2542/release

Video
ID : 0
Format : MPEG-4 Visual
Format profile : Advanced [email protected]
Format settings, BVOP : 1
Format settings, QPel : No
Format settings, GMC : No warppoints
Format settings, Matrix : Default (H.263)
Muxing mode : Packed bitstream
Codec ID : XVID
Codec ID/Hint : XviD
Duration : 1h 41mn
Bit rate : 815 Kbps
Width : 628 pixels
Height : 474 pixels
Display aspect ratio : 4:3
Frame rate : 29.970 fps
Color space : YUV
Chroma subsampling : 4:2:0
Bit depth : 8 bits
Scan type : Progressive
Compression mode : Lossy
Bits/(Pixel*Frame) : 0.091
Stream size : 593 MiB (85%)
Writing library : XviD 62

Audio
ID : 1
Format : MPEG Audio
Format version : Version 1
Format profile : Layer 3
Mode : Joint stereo
Mode extension : MS Stereo
Codec ID : 55
Codec ID/Hint : MP3
Duration : 1h 41mn
Bit rate mode : Constant
Bit rate : 128 Kbps
Channel(s) : 2 channels
Sampling rate : 44.1 KHz
Compression mode : Lossy
Stream size : 93.2 MiB (13%)
Alignment : Split accross interleaves
Interleave, duration : 33 ms (1.00 video frame)
Interleave, preload duration : 500 ms
Writing library : LAME3.98.2