Battle.New.York.Day.2.2011.DVDRip.XviD-EXT



IMDB :
http://www.imdb.com/title/tt1887676/



Synopsis:
A young woman, Laura, is getting therapy. She hears voices in her head. That ceases to matter when an alien invasion hits New York City. Most of the population are turned into zombies. Laura hooks up with a drifter, Neil, and they join other survivors. They start to see what the aliens are trying to do. Laura has a secret. They must find a way to stop the aliens.
Single Wupload :
http://www.wupload.com/file/33615217...iD-EXT.avi.rar

Single Fileserve :
http://www.fileserve.com/file/XVRfrX...iD-EXT.avi.rar

Single Filejungle :
http://www.filejungle.com/f/aHQs23/B...iD-EXT.avi.rar

Single Filesonic :
http://www.filesonic.com/file/240432...iD-EXT.avi.rar

PLEASE REPLY IF YOU LIKE MY POST!

SCREENSHOT :


NFO :
General
Complete name : Battle.New.York.Day.2.2011.DVDRip.XviD-EXT.avi
Format : AVI
Format/Info : Audio Video Interleave
File size : 688 MiB
Duration : 1h 33mn
Overall bit rate : 1 034 Kbps
Writing application : FairUse Wizard - http://fairusewizard.com
Writing library : The best and REALLY easy backup tool

Video
ID : 0
Format : MPEG-4 Visual
Format profile : Advanced [email protected]
Format settings, BVOP : 2
Format settings, QPel : No
Format settings, GMC : No warppoints
Format settings, Matrix : Default (H.263)
Muxing mode : Packed bitstream
Codec ID : XVID
Codec ID/Hint : XviD
Duration : 1h 33mn
Bit rate : 897 Kbps
Width : 688 pixels
Height : 288 pixels
Display aspect ratio : 2.40:1
Frame rate : 23.976 fps
Color space : YUV
Chroma subsampling : 4:2:0
Bit depth : 8 bits
Scan type : Progressive
Compression mode : Lossy
Bits/(Pixel*Frame) : 0.189
Stream size : 597 MiB (87%)
Writing library : XviD 1.2.0.dev47 (UTC 2006-11-01)

Audio
ID : 1
Format : MPEG Audio
Format version : Version 1
Format profile : Layer 3
Mode : Joint stereo
Mode extension : MS Stereo
Codec ID : 55
Codec ID/Hint : MP3
Duration : 1h 33mn
Bit rate mode : Constant
Bit rate : 128 Kbps
Channel(s) : 2 channels
Sampling rate : 48.0 KHz
Compression mode : Lossy
Stream size : 85.2 MiB (12%)
Alignment : Aligned on interleaves
Interleave, duration : 42 ms (1.00 video frame)
Interleave, preload duration : 504 ms
Writing library : LAME3.97
Encoding settings : -m j -V 4 -q 2 -lowpass 17 -b 128