Cross (2011) DVDRip XviD BBnRG



IMDB :
http://www.imdb.com/title/tt1046245/



Synopsis:
Given incredible power by an ancient Celtic Cross, Callan (Brian Austin Green) along with the help of weapon experts Riot (Tim Abell), Backfire (Jake Busey), War (Patrick Durham), Lucia (Lori Heuring) and Shark (Jonathan Sachar) battle an unstoppable evil empire led by Erlik (Michael Clarke Duncan) in the city of Los Angeles. When an ancient Viking called Gunnar, (Vinnie Jones) comes to town in search of blood, Callan must stop him before he destroys the world. Erlik (Michael Clarke Duncan) and his men Saw (Billy Zabka), London gangster English (Gianni Capaldi) and (Branden Cook) aided by the evil Doctor (Robert Carradine) aim to defeat Callan by helping Gunnar. Detective Nitti (Tom Sizemore) plans to find Callan and his team before they do his job for him.
Wupload :
http://www.wupload.com/file/33115837....avi.part1.rar
http://www.wupload.com/file/33120883....avi.part2.rar

Fileserve :
http://www.fileserve.com/file/yfvKr2....avi.part1.rar
http://www.fileserve.com/file/y2qNE4....avi.part2.rar

Filejungle :
http://www.filejungle.com/f/ZSN95J/c....avi.part1.rar
http://www.filejungle.com/f/jNgJzD/c....avi.part2.rar

Filesonic :
http://www.filesonic.com/file/240122....avi.part1.rar
http://www.filesonic.com/file/240122....avi.part2.rar

PLEASE REPLY IF YOU LIKE MY POST!

SCREENSHOT :


NFO :
Complete name : Cross (2011) DVDRip XviD BBnRG.avi
Format : AVI
Format/Info : Audio Video Interleave
File size : 1.46 GiB
Duration : 1h 44mn
Overall bit rate : 1 985 Kbps

Video
ID : 0
Format : MPEG-4 Visual
Format profile : Advanced [email protected]
Format settings, BVOP : 2
Format settings, QPel : No
Format settings, GMC : No warppoints
Format settings, Matrix : Default (H.263)
Codec ID : XVID
Codec ID/Hint : XviD
Duration : 1h 44mn
Bit rate : 1 594 Kbps
Width : 640 pixels
Height : 368 pixels
Display aspect ratio : 16:9
Frame rate : 23.976 fps
Color space : YUV
Chroma subsampling : 4:2:0
Bit depth : 8 bits
Scan type : Progressive
Compression mode : Lossy
Bits/(Pixel*Frame) : 0.282
Stream size : 1.17 GiB (80%)
Writing library : XviD 1.2.1 (UTC 2008-12-04)

Audio
ID : 1
Format : AC-3
Format/Info : Audio Coding 3
Mode extension : CM (complete main)
Codec ID : 2000
Duration : 1h 44mn
Bit rate mode : Constant
Bit rate : 384 Kbps
Channel(s) : 6 channels
Channel positions : Front: L C R, Side: L R, LFE
Sampling rate : 48.0 KHz
Bit depth : 16 bits
Compression mode : Lossy
Stream size : 288 MiB (19%)
Alignment : Aligned on interleaves
Interleave, duration : 64 ms (1.53 video frames)
Interleave, preload duration : 192 ms

___ _ ___ _ _ _
| _ \___| |___ __ _ ___ ___ | \ ___ ___ __ _ _(_)_ __| |_(_)___ _ _
| / -_) / -_) _` (_-</ -_) | |) / -_|_-</ _| '_| | '_ \ _| / _ \ ' \
|_|_\___|_\___\__,_/__/\___| |___/\___/__/\__|_| |_| .__/\__|_\___/_||_|
|_|
===================================================================================================

Action | Fantasy - 31 May 2011 (USA)

Given incredible power by an ancient Celtic Cross, Callan (Brian Austin Green) along with the
help of weapon experts Riot (Tim Abell), Backfire (Jake Busey), War (Patrick Durham), Lucia
(Lori Heuring) and Shark (Jonathan Sachar) battle an unstoppable evil empire led by Erlik
(Michael Clarke Duncan) in the city of Los Angeles. When an ancient Viking called Gunnar,
(Vinnie Jones) comes to town in search of blood, Callan must stop him before he destroys the
world. Erlik (Michael Clarke Duncan) and his men Saw (Billy Zabka), London gangster English
(Gianni Capaldi) and (Branden Cook) aided by the evil Doctor (Robert Carradine) aim to defeat
Callan by helping Gunnar. Detective Nitti (Tom Sizemore) plans to find Callan and his team
before they do his job for him.

IMDb Link:http://www.imdb.com/title/tt1046245/
___ _ _ _
/ __|_ _ ___ _ _ _ __ | \| |___| |_ ___ ___
| (_ | '_/ _ \ || | '_ \ | .` / _ \ _/ -_|_-<
\___|_| \___/\_,_| .__/ |_|\_\___/\__\___/__/
|_|
===================================================================================================
Encoder: FridayToker
Source(s): Own

Another fine release from BBnRG

We aim to bring you only the best :)

___ _
/ __|_ _ ___ ___| |_ ___
| (_ | '_/ -_) -_) _|_ /
\___|_| \___\___|\__/__|
===================================================================================================
NiCkkkDoN, Hive-CM8, DiVERSiTY, ViSiON, CrEwSaDe, 3LT0N, T0XiC, *THC*, TWiZTED, BBRG, CrEwSaDe,
BHRG, PECKO, CRYS, SC0RN, DEFACED, AMiABLE, KiNGDOM, aAF, MOUMENTUM, UnKnOwN, FreaK, FLAWL3SS,
BDK, SMSB, ViP3R, EMBER, LKRG, LTRG, MXMG, Rx, MASSiVE, TaRiQ786, Jucified, RippeR, EXViD, TDP,
VoMiT, PRESTiGE.& to all other p2p team out there....