Father.Of.Invention.2010.DVDRiP.AC3-SiC



IMDB :
http://www.imdb.com/title/tt1381505/



Synopsis:
Robert Axle, an eccentric inventor turned ego maniacal infomercial guru, loses it all when one of his inventions maims thousands of customers. After 8 years in maximum security prison, Axle is ready to redeem his name and rebuild his billion dollar empire. But first he must convince his estranged 22 year old daughter to let him live with her and her quirky, over protective roommates.
Wupload :
http://www.wupload.com/file/33058379....avi.part1.rar
http://www.wupload.com/file/33059014....avi.part2.rar

Fileserve :
http://www.fileserve.com/file/rG9mk4....avi.part1.rar
http://www.fileserve.com/file/N9Bn35....avi.part2.rar

Filejungle :
http://www.filejungle.com/f/akssMM/F....avi.part1.rar
http://www.filejungle.com/f/fm27HG/F....avi.part2.rar

Filesonic :
http://www.filesonic.com/file/239755....avi.part1.rar
http://www.filesonic.com/file/239755....avi.part2.rar

PLEASE REPLY IF YOU LIKE MY POST!

SCREENSHOT :
[img]IMAGE[/img]

NFO :
Father.Of.Invention.2010.DVDRiP.AC3-SiC

Poster:


IMDB Link:
http://www.imdb.com/title/tt1381505/

Description:
Robert Axle, an eccentric inventor turned ego maniacal infomercial guru, loses it all when one of his inventions maims thousands of customers. After 8 years in maximum security prison, Axle is ready to redeem his name and rebuild his billion dollar empire. But first he must convince his estranged 22 year old daughter to let him live with her and her quirky, over protective roommates.

MediaInfo:
General
Complete name : Work\Father.Of.Invention.2010.DVDRiP.XviD.AC3-SiC.avi
Format : AVI
Format/Info : Audio Video Interleave
File size : 1.37 GiB
Duration : 1h 33mn
Overall bit rate : 2 102 Kbps

Video
ID : 0
Format : MPEG-4 Visual
Format profile : Advanced [email protected]
Format settings, BVOP : 1
Format settings, QPel : No
Format settings, GMC : No warppoints
Format settings, Matrix : Default (H.263)
Codec ID : XVID
Codec ID/Hint : XviD
Duration : 1h 33mn
Bit rate : 1 647 Kbps
Width : 720 pixels
Height : 304 pixels
Display aspect ratio : 2.35:1
Frame rate : 23.976 fps
Color space : YUV
Chroma subsampling : 4:2:0
Bit depth : 8 bits
Scan type : Progressive
Compression mode : Lossy
Bits/(Pixel*Frame) : 0.314
Stream size : 1.07 GiB (78%)
Writing library : XviD 1.2.1 (UTC 2008-12-04)

Audio
ID : 1
Format : AC-3
Format/Info : Audio Coding 3
Mode extension : CM (complete main)
Codec ID : 2000
Duration : 1h 33mn
Bit rate mode : Constant
Bit rate : 448 Kbps
Channel(s) : 6 channels
Channel positions : Front: L C R, Side: L R, LFE
Sampling rate : 48.0 KHz
Bit depth : 16 bits
Compression mode : Lossy
Stream size : 299 MiB (21%)
Alignment : Aligned on interleaves
Interleave, duration : 64 ms (1.53 video frames)
Interleave, preload duration : 448 ms
Title : fatherof T80 3_2ch 448Kbps DELAY 0ms

Screenshots:







Note : Straight rip.

Source: Our own

Enjoy!

Respects to CaptainHomey, Cyanide, CM8, Rx, THC, ELEKTRI4KA,
Killerhz, PA, YeFsTe, BoxSlots, MrRep and everyone in the struggle...