Thor [2011] Eng BrRip Xvid Mp3-GtpD



IMDB :
http://www.imdb.com/title/tt0800369/



Synopsis:
Plot:The powerful but arrogant warrior Thor is cast out of the fantastic realm of Asgard and sent to live amongst humans on Earth, where he soon becomes one of their finest defenders
Single Wupload :
http://www.wupload.com/file/32911397...3-GtpD.avi.rar

Single Fileserve :
http://www.fileserve.com/file/Rv7Z3u...3-GtpD.avi.rar

Single Filejungle :
http://www.filejungle.com/f/jDUCtr/T...3-GtpD.avi.rar

Single Filesonic :
http://www.filesonic.com/file/239073...3-GtpD.avi.rar

PLEASE REPLY IF YOU LIKE MY POST!

SCREENSHOT :


NFO :
General
Complete name : Thor.2011.EngBrRipXvidMp3-GtpD.avi
Format : AVI
Format/Info : Audio Video Interleave
File size : 699 MiB
Duration : 1h 54mn
Overall bit rate : 851 Kbps

Video
ID : 0
Format : MPEG-4 Visual
Format profile : Advanced [email protected]
Format settings, BVOP : 2
Format settings, QPel : No
Format settings, GMC : No warppoints
Format settings, Matrix : Custom
Codec ID : XVID
Codec ID/Hint : XviD
Duration : 1h 54mn
Bit rate : 710 Kbps
Width : 672 pixels
Height : 448 pixels
Display aspect ratio : 16:9
Frame rate : 23.976 fps
Color space : YUV
Chroma subsampling : 4:2:0
Bit depth : 8 bits
Scan type : Progressive
Compression mode : Lossy
Bits/(Pixel*Frame) : 0.098
Stream size : 584 MiB (83%)
Writing library : XviD 1.2.0.dev47 (UTC 2006-11-01)

Audio
ID : 1
Format : MPEG Audio
Format version : Version 1
Format profile : Layer 3
Codec ID : 55
Codec ID/Hint : MP3
Duration : 1h 54mn
Bit rate mode : Constant
Bit rate : 128 Kbps
Channel(s) : 2 channels
Sampling rate : 48.0 KHz
Compression mode : Lossy
Stream size : 105 MiB (15%)
Alignment : Split accross interleaves
Interleave, duration : 24 ms (0.58 video frame)
Writing library : LAME3.98