Maraton.Tanca.2011.DVDRiP.XViD-SML



IMDB :
http://www.imdb.com/title/tt1769307/



Synopsis:
An event, which main attraction is the dance marathon, has gathered crowds at the market square of the provincial Polish town. Impressive prizes compete with another attraction: the concert of the star singer Jessica. A local outsider Christian falls for the singer. Soon he discovers that her life is far from being a dream and decides to win her heart. In the crowd of marathon contestants we will meet many individuals who dream of winning the main prize for various motivations. Who will turn out to be the winner? Will there be a prize at all? Because two small-time crooks, Simon and Silvio, are lurking around. And why this persistent notion that our life is so often influenced by miracles...?
Language: Polish.
Subs: -

Single Wupload :
http://www.wupload.com/file/32799063...id-sml.avi.rar

Single Fileserve :
http://www.fileserve.com/file/zWSqEC...id-sml.avi.rar

Single Filejungle :
http://www.filejungle.com/f/6ZUyTj/m...id-sml.avi.rar

Single Filesonic :
http://www.filesonic.com/file/238675...id-sml.avi.rar

PLEASE REPLY IF YOU LIKE MY POST!

SCREENSHOT :


NFO :
General
Complete name : maratontanca-xvid-sml.avi
Format : AVI
Format/Info : Audio Video Interleave
File size : 698 MiB
Duration : 1h 38mn
Overall bit rate : 994 Kbps
Writing application : VirtualDubMod 1.5.10.2 (build 2540/release)
Writing library : VirtualDubMod build 2540/release

Video
ID : 0
Format : MPEG-4 Visual
Format profile : Advanced [email protected]
Format settings, BVOP : 2
Format settings, QPel : No
Format settings, GMC : No warppoints
Format settings, Matrix : Default (H.263)
Muxing mode : Packed bitstream
Codec ID : XVID
Codec ID/Hint : XviD
Duration : 1h 38mn
Bit rate : 852 Kbps
Width : 640 pixels
Height : 272 pixels
Display aspect ratio : 2.35:1
Frame rate : 25.000 fps
Color space : YUV
Chroma subsampling : 4:2:0
Bit depth : 8 bits
Scan type : Progressive
Compression mode : Lossy
Bits/(Pixel*Frame) : 0.196
Stream size : 598 MiB (86%)
Writing library : XviD 58

Audio
ID : 1
Format : MPEG Audio
Format version : Version 1
Format profile : Layer 3
Mode : Joint stereo
Mode extension : MS Stereo
Codec ID : 55
Codec ID/Hint : MP3
Duration : 1h 38mn
Bit rate mode : Variable
Bit rate : 128 Kbps
Channel(s) : 2 channels
Sampling rate : 48.0 KHz
Compression mode : Lossy
Stream size : 91.0 MiB (13%)
Alignment : Aligned on interleaves
Interleave, duration : 24 ms (0.60 video frame)
Interleave, preload duration : 536 ms
Writing library : LAME3.90.
Encoding settings : -m j -V 4 -q 2 -lowpass 17.6 --abr 128