Colombiana.2011.KORSUB.720p.HDRip.x264.AC3-ZERO



IMDB :
http://www.imdb.com/title/tt1657507/



Synopsis:
A young woman, after witnessing her parents murder as a child in Bogota, grows up to be a stone-cold assassin.
Wupload :
http://www.wupload.com/file/32534745....mkv.part1.rar
http://www.wupload.com/file/32535856....mkv.part2.rar
http://www.wupload.com/file/32539013....mkv.part3.rar
http://www.wupload.com/file/32540519....mkv.part4.rar

Fileserve :
http://www.fileserve.com/file/KGTEe3....mkv.part1.rar
http://www.fileserve.com/file/2U4bTC....mkv.part2.rar
http://www.fileserve.com/file/se4PPK....mkv.part3.rar
http://www.fileserve.com/file/CjZjN2....mkv.part4.rar

Filejungle :
http://www.filejungle.com/f/BQ6kuu/C....mkv.part1.rar
http://www.filejungle.com/f/aR6mbT/C....mkv.part2.rar
http://www.filejungle.com/f/PEZwsN/C....mkv.part3.rar
http://www.filejungle.com/f/KX6fM9/C....mkv.part4.rar

Filesonic :
http://www.filesonic.com/file/238562....mkv.part1.rar
http://www.filesonic.com/file/238562....mkv.part2.rar
http://www.filesonic.com/file/238564....mkv.part3.rar
http://www.filesonic.com/file/238564....mkv.part4.rar

PLEASE REPLY IF YOU LIKE MY POST!

SCREENSHOT :


NFO :
General
Unique ID : 248451788618675874059902635132944502429 (0xBAEA12EDF9E3A8BB8F49E793323DCE9D)
Complete name : Colombiana.2011.KORSUB.720p.HDRip.x264.AC3-ZERO.mkv
Format : Matroska
File size : 2.42 GiB
Duration : 1h 47mn
Overall bit rate : 3 214 Kbps
Encoded date : UTC 2011-10-07 07:25:00
Writing application : mkvmerge v5.0.0 ('Die Wahre Liebe') built on Sep 25 2011 20:33:49
Writing library : libebml v1.2.2 + libmatroska v1.3.0

Video
ID : 1
Format : AVC
Format/Info : Advanced Video Codec
Format profile : [email protected]
Format settings, CABAC : Yes
Format settings, ReFrames : 4 frames
Codec ID : V_MPEG4/ISO/AVC
Duration : 1h 47mn
Bit rate : 3 020 Kbps
Width : 1 280 pixels
Height : 544 pixels
Display aspect ratio : 2.35:1
Frame rate : 29.970 fps
Color space : YUV
Chroma subsampling : 4:2:0
Bit depth : 8 bits
Scan type : Progressive
Bits/(Pixel*Frame) : 0.145
Stream size : 2.23 GiB (92%)
Writing library : x264 core 118 r2085 8a62835
Encoding settings : cabac=1 / ref=3 / deblock=1:0:0 / analyse=0x3:0x111 / me=hex / subme=7 / psy=1 / psy_rd=1.00:0.00 / mixed_ref=1 / me_range=16 / chroma_me=1 / trellis=1 / 8x8dct=1 / cqm=0 / deadzone=21,11 / fast_pskip=1 / chroma_qp_offset=-2 / threads=3 / sliced_threads=0 / nr=0 / decimate=1 / interlaced=0 / bluray_compat=0 / constrained_intra=0 / bframes=3 / b_pyramid=2 / b_adapt=1 / b_bias=0 / direct=1 / weightb=1 / open_gop=0 / weightp=2 / keyint=250 / keyint_min=25 / scenecut=40 / intra_refresh=0 / rc_lookahead=40 / rc=2pass / mbtree=1 / bitrate=3020 / ratetol=1.0 / qcomp=0.60 / qpmin=0 / qpmax=69 / qpstep=4 / cplxblur=20.0 / qblur=0.5 / ip_ratio=1.40 / aq=1:1.00
Language : English

Audio
ID : 2
Format : AC-3
Format/Info : Audio Coding 3
Mode extension : CM (complete main)
Codec ID : A_AC3
Duration : 1h 47mn
Bit rate mode : Constant
Bit rate : 192 Kbps
Channel(s) : 2 channels
Channel positions : Front: L R
Sampling rate : 48.0 KHz
Bit depth : 16 bits
Compression mode : Lossy
Stream size : 148 MiB (6%)