Phase.7.2010.DVDRip.XVID.AC3.HQ.Hive-CM8



IMDB :
http://www.imdb.com/title/tt1568816/



Synopsis:
Coco (Hendler) has just moved to a new apartment with his wife Pipi (Stuart), who’s seven months pregnant. At first, they don’t seem to notice the growing chaos around them, but when authorities quarantine their building after a deadly pandemic breaks out, Coco joins forces with his off-kilter, but well-prepared and stocked next-door neighbor Horacio to defend his refrigerator and keep Pipi safe. Meanwhile, outside the building, Buenos Aires-and the world as the apartment denizens know it, is disappearing. The world is ending; got ammo?
Wupload :
http://www.wupload.com/file/32490719....avi.part1.rar
http://www.wupload.com/file/32487757....avi.part2.rar

Fileserve :
http://www.fileserve.com/file/mxBW3Z....avi.part1.rar
http://www.fileserve.com/file/zq6fAX....avi.part2.rar

Filejungle :
http://www.filejungle.com/f/3wEAFC/P....avi.part1.rar
http://www.filejungle.com/f/3BzPjK/P....avi.part2.rar

Filesonic :
http://www.filesonic.com/file/238469....avi.part1.rar
http://www.filesonic.com/file/238468....avi.part2.rar

PLEASE REPLY IF YOU LIKE MY POST!

SCREENSHOT :


NFO :
CM8 Doing It Right The First Time :D


Source: R1 DVD-R

DVD quality was ok, added brightness, sharpness, rgb and denoise.
got nice

Note:
Original Language of the Movie is Spanish, the English R1 DVD is English dubbed,
so voices wont match lips but the complete Movie is in English.
enjoy

Video: 720x304 @bitrate 1400 2pass
Audio: English AC3 5.1 @448
Sample: Yes, included[/b]


http://www.imdb.com/title/tt1568816/


General
Complete name : Phase.7.2010.DVDRip.XVID.AC3.HQ.Hive-CM8.avi
Format : AVI
Format/Info : Audio Video Interleave
File size : 1.26 GiB
Duration : 1h 37mn
Overall bit rate : 1 857 Kbps
Writing application : Nandub v1.0rc2
Writing library : Nandub build 1853/release

Video
ID : 0
Format : MPEG-4 Visual
Format profile : Advanced [email protected]
Format settings, BVOP : 2
Format settings, QPel : Yes
Format settings, GMC : No warppoints
Format settings, Matrix : Default (H.263)
Muxing mode : Packed bitstream
Codec ID : XVID
Codec ID/Hint : XviD
Duration : 1h 37mn
Bit rate : 1 400 Kbps
Width : 720 pixels
Height : 304 pixels
Display aspect ratio : 2.35:1
Frame rate : 23.976 fps
Color space : YUV
Chroma subsampling : 4:2:0
Bit depth : 8 bits
Scan type : Progressive
Compression mode : Lossy
Bits/(Pixel*Frame) : 0.267
Stream size : 972 MiB (75%)
Writing library : XviD 1.2.1 (UTC 2008-12-04)

Audio
ID : 1
Format : AC-3
Format/Info : Audio Coding 3
Mode extension : CM (complete main)
Codec ID : 2000
Duration : 1h 37mn
Bit rate mode : Constant
Bit rate : 448 Kbps
Channel(s) : 6 channels
Channel positions : Front: L C R, Side: L R, LFE
Sampling rate : 48.0 KHz
Bit depth : 16 bits
Compression mode : Lossy
Delay relative to video : 10ms
Stream size : 311 MiB (24%)
Alignment : Split accross interleaves
Interleave, duration : 42 ms (1.00 video frame)
Interleave, preload duration : 500 ms


Plot:
Inside a quarantined apartment building, during a global epidemic,
a man must protect his pregnant wife from their new neighbors.


Cast:
Daniel Hendler ... Coco
JazmÝn Stuart ... Pipi
Yayo Guridi ... Horacio
Federico Luppi ... Zanutto