Night Of The Living Heads 2011 DVDRip Xvid-UnKnowN



IMDB :
http://www.notlh.com/



Synopsis:
Plot: A mysterious yet potent strain of Marijuana from Jamaica has hit the streets in a quiet, suburban neighborhood. It doesn’t take long until the effects of the powerful Ganja take control of the town stoners; and cause them to start acting strange. Can you handle the high-caliber chronic? Or, will you fall victim to the…Night of the Living Heads?”
Wupload :
http://www.wupload.com/file/32450753....avi.part1.rar
http://www.wupload.com/file/32451306....avi.part2.rar

Fileserve :
http://www.fileserve.com/file/pzhhbf....avi.part1.rar
http://www.fileserve.com/file/YaMJuG....avi.part2.rar

Filejungle :
http://www.filejungle.com/f/ZjwVWK/n....avi.part1.rar
http://www.filejungle.com/f/jEfe8n/n....avi.part2.rar

Filesonic :
http://www.filesonic.com/file/238439....avi.part1.rar
http://www.filesonic.com/file/238439....avi.part2.rar

PLEASE REPLY IF YOU LIKE MY POST!

SCREENSHOT :


NFO :
ÉÍÄÄÄÄÄÄÄÄÄÄÄÄÄÄÄÄÄÄÄÄÄÄÄÄÄÄÄÄÄÄÍÍÍÍÍÍÍÍÍÍÍÍÍÍÍÄÄÄÄÄÄÄÄÄÄÄÄÄÄÄÄÄÄÄÄÄÄÄÄÄÄÄÄÄÄÄÍ»
º ÿ º
º ::: :::ÿ ÿ::::: ÿÿ:::ÿ ÿ::: ::::: ÿÿ:::ÿÿÿ ::: ::: ::::: º
º ::: :::ÿ :::::::ÿÿÿ:::ÿ ÿ::: ::::::: :::::ÿÿ ::: ::: ::::::: º
º ::: :::ÿÿ:::::::::ÿÿ:::ÿÿÿ:::ÿÿÿ:::::::::ÿ ::: ::: ÿ::: ::: ::::::::: º
º ::: ::: ÿ:::ÿÿÿ:::ÿÿ:::ÿÿ:::ÿ ÿÿ:::ÿÿÿ::: ÿ::: ::: ÿ::: ::: :::ÿÿÿ::: º
º ::: ::: ÿ:::ÿ ÿ:::ÿÿ:::::::ÿÿ ÿÿ::: ÿ::: ÿ::: ::: ::: ::: :::ÿ ÿ::: º
º ::: ::: ÿ:::ÿ ÿ:::ÿÿ::::::ÿÿ ÿÿ::: ÿ::: ÿ::: ::: ::: : ::: :::ÿ ÿ::: º
º ::: ::: ÿ:::ÿ ÿ:::ÿÿ:::::::ÿÿ ÿÿ::: ÿ::: ÿ::: ::: ::: ::: ::: :::ÿ ÿ::: º
º ::: ::: ÿ:::ÿ ÿ:::ÿÿ:::ÿÿ:::ÿÿÿÿ::: ÿ::: ÿ::: ::: ::: : : ::: :::ÿ ÿ::: º
º :::..::: ÿ:::ÿ ÿ:::ÿÿ:::ÿ ÿ:::ÿÿÿ::: ÿ::: ÿ::: ::: ::::: ::::: :::ÿ ÿ::: º
º ÿ::::::ÿÿÿ:::ÿ ÿ:::ÿÿ:::ÿ ÿÿ:::ÿÿ::: ÿ::: ÿÿ:::::ÿÿ ::::: ::::: :::ÿ ÿ::: º
º ÿ::::ÿ ÿ:::ÿ ÿ:::ÿÿ:::ÿ ÿÿ:::ÿ::: ÿ::: ÿÿÿ:::ÿÿ :::: :::: :::ÿ ÿ::: º
ÌÍÄÄÄÄÄÄÄÄÄÄÄÄÄÄÄÄÄÄÄÄÄÄÄÄÄÄÄÄÄÄÍÍÍÍÍÍÍÍÍÍÍÍÍÍÍÄÄÄÄÄÄÄÄÄÄÄÄÄÄÄÄÄÄÄÄÄÄÄÄÄÄÄÄÄÄÄ͹
º º
³Ð Ð Ð Ð Ð Ð Ð Ð Ð Ð Ð Ð Ð Ð Ð Ð Ð NOTES Ð Ð Ð Ð Ð Ð Ð Ð Ð Ð Ð Ð Ð Ð Ð Ð Ð Ð ³
³ ³
³Ð Ð Ð Ð Ð Ð Ð Ð Ð Ð Ð Ð Ð Ð Ð Ð Ð NOTES Ð Ð Ð Ð Ð Ð Ð Ð Ð Ð Ð Ð Ð Ð Ð Ð Ð Ð ³
³ ³
³ ³
³ ³
³ Encoded By .......:UnKnOwN ³
³ Runtime ..........:1:25 ³
³ IMDb URL .........:http://www.notlh.com/ ³
³ Language .........:English ³
³ File Size ........:1.24b ³
³ Release Date ......... 2011 ³
³ Source ......... Your Basement(: ³
³ File Type ......... Single AVI ³
³ PS3 Compatible ....... Who Cares ³
³ Genre ......... Horror/Zombie ³
³ ³
³ ³
³ Video ³
³ ID : 0 ³
³ Format : MPEG-4 Visual ³
³ Format profile : Advanced [email protected] ³
³ Format settings, BVOP : Yes ³
³ Format settings, QPel : No ³
³ Format settings, GMC : No warppoints ³
³ Format settings, Matrix : Custom ³
³ Codec ID : XVID ³
³ Codec ID/Hint : XviD ³
³ Duration : 1h 25mn ³
³ Bit rate : 1700Kbps ³
³ Width : 680ixels ³
³ Height : 364pixels ³
³ Display aspect ratio : 16:9 ³
³ Frame rate : 29.997fps ³
³ Color space : YUV ³
³ Chroma subsampling : 4:2:0 ³
³ Bit depth : 8 bits ³
³ Scan type : Progressive ³
³ Bits/(Pixel*Frame) : 0.234 ³
³ Stream size : 892 MiB (86%) ³
³ Writing library : XviD 1.2.1 (UTC 2008-12-04) ³
³ ³
³ ³
³ Audio ³
³ ID : 1 ³
³ Format : AC3 ³
³ Format/Info : Version 1 ³
³ Mode extension : Ac3 ³
³ Codec ID : 2000 ³
³ Duration : 1h 25mn ³
³ Bit rate mode : Constant ³
³ Bit rate : 384bps ³
³ Channel(s) : 6channels ³
³ Channel positions : Front: L R ³
³ Sampling rate : 48.0 KHz ³
³ Bit depth : 16 bits ³
³ Stream size : 302 MiB ³
³ Alignment : Aligned on interleaves ³
³ Interleave, duration : 42 ms (1.00 video frame) ³
³ Interleave, preload duration : 512 ms ³
³ ³
³ ³
³ ³
³ ³
³ ³
³ ³
³ ³
³ SYSPNOSIS ³
³ A mysterious yet potent strain of Marijuana from Jamaica has hit the streets ³
³ in a quiet, suburban neighborhood. It doesn't take long until the effects ³
³ of the powerful Ganja take control of the town stoners; and cause them to ³
³ start acting strange. Can you handle the high-caliber chronic? Or, will you ³
³ fall victim to the...Night of the Living Heads?" ³
³ ³
³ RELEASE INFO ³
³ While i was stoned i decided to rip this,at first i thought the chick in ³
³ image#1 looked good as i came to my senses it started looking like a dude ³
³ then i saw the guys man boobs in image#3 and went wtf man,then i saw ³
³ the shower scene every b movie has one to clear my doubts of the he/she ³
³ and i dont know if that was a body double or what but that chick has more ³
³ rolls thens the pillsbury doughboy,think they took man boobs and used ³
³ him for her body double you be the judge,Def a stoner flick if you toke ³
³ and are a zombie fan check it out ³
º º
º º
º º
ÈÍÍÍÍÍÍÍÍÍÍÍÍÍÍÍÍÍÍÍÍÍÍÍÍÍÍÍÍÍÍÍÍÍÍÍÍÍÍÍÍÍÍÍÍÍÍÍÍÍÍÍÍÍÍÍÍÍÍÍÍÍÍÍÍÍÍÍÍÍÍÍÍÍÍÍÍÍÍ\u0152
ÉÍËÍÍÍÍÍÍÍ» ÉÄËÄÄËÄÄÄËÄÄÄÄËÍÄÄÄÍËÍÄÄÄÍËÄÄÄÄËÄÄÄËÄÄËÄ» ÉÍÍÍÍÍÍÍËÍ»
ÈÎ\u0152 ÈÄÍÍÍÍÍÄÍ\u0152ÍÊÍÍÊÍÍÍÊÍÍÍÍÊÍÍÍÍÍÊÍÍÍÍÍÊÍÍÍÍÊÍÍÍÊÍÍÊÍÈÍÄÍÍÍÍÍÄÍ\u0152 ÈÎ\u0152
º º
º LOOKING FOR º
º º
º Someone to give mouth to mouth resuscitation to my hamster, º
º he just lays there in the fetal position on his wheel lazy bastard º
º º
º º
º º
ÉÎËÍÍÍÍÍÍÍÍÍÍÍÍÍÍÍÍÍÍÍÍÍÍÍÍÍÍÍÍÍÍÍÍÍÍÍÍÍÍÍÍÍÍÍÍÍÍÍÍÍÍÍÍÍÍÍÍÍÍÍÍÍÍÍÍÍÍÍÍÍÍÍÍÍÍËλ
ÈË\u0152 Ð Ð Ð Ð Ð Ð Ð Ð Ð Ð Ð Ð Ð Ð GREETZ & RESPECT Ð Ð Ð Ð Ð Ð Ð Ð Ð Ð Ð Ð Ð ÐÈË\u0152
ÈÍÍÍÍÍÍÍÍÍÍÍÍÍÍÍÍÍÍÍÍÍÍÍËÍÍÍÍÍÍÍÍÍÍÍÍÍÍÍÍÍÍÍÍÍÍÍÍÍÍÍÍÍÍËÍÍÍÍÍÍÍÍÍÍÍÍÍÍÍÍÍÍÍÍÍ\u0152
º NOBODY YET WILL LET YOU KNOW º
º º
º MORE GOODIES COMING REAL SOONº
ÈÍÍÍÍÍÍÍÍÍÍÍÍÍÍÍÍÍÍÍÍÍÍÍÍÍÍÍÍÍÍ\u0152