Children of the Corn Genesis (2011) DVDRip Xvid AC3-SiC
IMDb info
Language: English
AVI | 80 mins | XviD | 720x304 (24fps) | AC3 384 kb/s 6 ch | 1.30 GB
Genres: Horror | Thriller


Release Group: SiC
Release Name: Children.of.the.Corn.Genesis.2011.DVDRip.Xvid.AC3-SiC
Release Date: 03-8-2011
Filename: Children.of.the.Corn.Genesis.2011.DVDRip.Xvid.AC3-SiC.avi
Source: DVDRip
Genre: Horror | Thriller
Size: 1.30 GB
Duration: 01:20:36
Audio: English, ac3, 48000 Hz, 5:1, 384 kb/s
Video: mpeg4, yuv420p, 720x304, 23.98 fps, avg.bitrate: 2304 kb/s
IMDB Rating: 5.0/10 from 110 users
RT Critics: 2.4/5
Directed By: Joel Soisson
Starring: J.J. Banicki, Dusty Burwell and Kai Caster.


MediaInfo:

General
Format : AVI
Format/Info : Audio Video Interleave
File size : 1.30 GiB
Duration : 1h 20mn
Overall bit rate : 2 304 Kbps

Video
ID : 0
Format : MPEG-4 Visual
Format profile : Advanced [email protected]
Format settings, BVOP : Yes
Format settings, QPel : No
Format settings, GMC : No warppoints
Format settings, Matrix : Default (H.263)
Muxing mode : Packed bitstream
Codec ID : XVID
Codec ID/Hint : XviD
Duration : 1h 20mn
Bit rate : 1 912 Kbps
Width : 720 pixels
Height : 304 pixels
Display aspect ratio : 2.35:1
Frame rate : 23.976 fps
Resolution : 8 bits
Colorimetry : 4:2:0
Scan type : Progressive
Bits/(Pixel*Frame) : 0.364
Stream size : 1.08 GiB (83%)
Writing library : XviD 64

Audio
ID : 1
Format : AC-3
Format/Info : Audio Coding 3
Format_Settings_ModeExtension : CM (complete main)
Codec ID : 2000
Duration : 1h 20mn
Bit rate mode : Constant
Bit rate : 384 Kbps
Channel(s) : 6 channels
Channel positions : Front: L C R, Side: L R, LFE
Sampling rate : 48.0 KHz
Stream size : 221 MiB (17%)
Alignment : Aligned on interleaves
Interleave, duration : 64 ms (1.53 video frames)
Interleave, preload duration : 960 ms
Title : 6ch English



IMDB Link:

http://www.imdb.com/title/tt1745672/



Plot:
TIM and ALLIE seek shelter in a remote desert compound after becoming lost and stranded. A strange Manson-like character, PREACHER (Drago), reluctantly allows them inside with strict orders to be gone by morning and not wander "where you are not invited." At first, Preacher and his mail-order wife OKSANA (Nedeljakova) deny the faint screams and cries that emanate from one of the crumbling outbuildings. When Allie sneaks outside to investigate, she discovers that she and Tim have stumbled onto a bizarre cult worshiping an entity that may - or may not - dwell inside a haunted little boy.

Screenshots:








Download - Wupload:


http://www.wupload.com/file/31652218....avi.part1.rar
http://www.wupload.com/file/31652219....avi.part2.rar
http://www.wupload.com/file/31652219....avi.part3.rar