Without.Men.2011.DVDRip.XVID.AC3.HQ.Hive-CM8



IMDB :
http://www.imdb.com/title/tt1547090/



Single Wupload :
http://www.wupload.com/file/29158707...ve-CM8.avi.rar

Single Fileserve :
http://www.fileserve.com/file/9yAYw9...ve-CM8.avi.rar

Single Filejungle :
http://www.filejungle.com/f/ehZHjP/W...ve-CM8.avi.rar

Single Filesonic :
http://www.filesonic.com/file/230831...ve-CM8.avi.rar

Wupload :
http://www.wupload.com/file/29158372...-CM8.part1.rar
http://www.wupload.com/file/29158392...-CM8.part2.rar
http://www.wupload.com/file/29158392...-CM8.part3.rar
http://www.wupload.com/file/29158753...-CM8.part4.rar

Fileserve :
http://www.fileserve.com/file/tMh2Pc...-CM8.part1.rar
http://www.fileserve.com/file/vDW2kr...-CM8.part2.rar
http://www.fileserve.com/file/4DMQn5...-CM8.part3.rar
http://www.fileserve.com/file/b88gZV...-CM8.part4.rar

Filejungle :
http://www.filejungle.com/f/3keH9H/W...-CM8.part1.rar
http://www.filejungle.com/f/Fa645M/W...-CM8.part2.rar
http://www.filejungle.com/f/3hff8h/W...-CM8.part3.rar
http://www.filejungle.com/f/sGGxw9/W...-CM8.part4.rar

Filesonic :
http://www.filesonic.com/file/230823...-CM8.part1.rar
http://www.filesonic.com/file/230823...-CM8.part2.rar
http://www.filesonic.com/file/230822...-CM8.part3.rar
http://www.filesonic.com/file/230822...-CM8.part4.rar

PLEASE REPLY IF YOU LIKE MY POST!

SCREENSHOT :


NFO :
Without.Men.2011.DVDRip.XVID.AC3.HQ.Hive-CM8


Thx Hive


CM8 Doing It Right The First Time


Source: DVD-R

Encode:

DVD had nice quality, added sharpness,brightness,rgb and denoise
enjoy

Video: 720x384 @bitrate 1800 2pass
Audio: English AC3 5.1 @448
Sample: yes included


http://www.imdb.com/title/tt1547090/


General
Complete name : Without.Men.2011.DVDRip.XVID.AC3.HQ.Hive-CM8.avi
Format : AVI
Format/Info : Audio Video Interleave
File size : 1.37 GiB
Duration : 1h 26mn
Overall bit rate : 2 257 Kbps
Writing application : Nandub v1.0rc2
Writing library : Nandub build 1853/release

Video
ID : 0
Format : MPEG-4 Visual
Format profile : Advanced [email protected]
Format settings, BVOP : 2
Format settings, QPel : Yes
Format settings, GMC : No warppoints
Format settings, Matrix : Default (H.263)
Muxing mode : Packed bitstream
Codec ID : XVID
Codec ID/Hint : XviD
Duration : 1h 26mn
Bit rate : 1 800 Kbps
Width : 720 pixels
Height : 400 pixels
Display aspect ratio : 16:9
Frame rate : 23.976 fps
Color space : YUV
Chroma subsampling : 4:2:0
Bit depth : 8 bits
Scan type : Progressive
Compression mode : Lossy
Bits/(Pixel*Frame) : 0.261
Stream size : 1.09 GiB (80%)
Writing library : XviD 1.2.1 (UTC 2008-12-04)

Audio
ID : 1
Format : AC-3
Format/Info : Audio Coding 3
Mode extension : CM (complete main)
Codec ID : 2000
Duration : 1h 26mn
Bit rate mode : Constant
Bit rate : 448 Kbps
Channel(s) : 6 channels
Channel positions : Front: L C R, Side: L R, LFE
Sampling rate : 48.0 KHz
Bit depth : 16 bits
Compression mode : Lossy
Stream size : 278 MiB (20%)
Alignment : Split accross interleaves
Interleave, duration : 42 ms (1.00 video frame)
Interleave, preload duration : 500 ms