Mr.Poppers.Penguins.2011.720p.BRRiP.XViD.AC3-FLAWL3SS



IMDB :
http://www.imdb.com/title/tt1396218/



Wupload :
http://www.wupload.com/file/27889031....avi.part1.rar
http://www.wupload.com/file/27887479....avi.part2.rar
http://www.wupload.com/file/27885580....avi.part3.rar
http://www.wupload.com/file/27889130....avi.part4.rar
http://www.wupload.com/file/27901233....avi.part5.rar

Fileserve :
http://www.fileserve.com/file/2r6gCu....avi.part1.rar
http://www.fileserve.com/file/exUgQW....avi.part2.rar
http://www.fileserve.com/file/fBzfeq....avi.part3.rar
http://www.fileserve.com/file/XPTtmh....avi.part4.rar
http://www.fileserve.com/file/5NyC9S....avi.part5.rar

Filejungle :
http://www.filejungle.com/f/kya3MN/M....avi.part1.rar
http://www.filejungle.com/f/85pgnu/M....avi.part2.rar
http://www.filejungle.com/f/UKfFFM/M....avi.part3.rar
http://www.filejungle.com/f/znsFAD/M....avi.part4.rar
http://www.filejungle.com/f/FmfPAE/M....avi.part5.rar

Filesonic :
http://www.filesonic.com/file/230078....avi.part1.rar
http://www.filesonic.com/file/230077....avi.part2.rar
http://www.filesonic.com/file/230078....avi.part3.rar
http://www.filesonic.com/file/230078....avi.part4.rar
http://www.filesonic.com/file/230078....avi.part5.rar

PLEASE REPLY IF YOU LIKE MY POST!

SCREENSHOT :


NFO :
General
Complete name : Mr.Poppers.Penguins.2011.720p.BRRiP.XViD.AC3-FLAWL3SS.avi
Format : AVI
Format/Info : Audio Video Interleave
Format profile : OpenDML
File size : 2.81 GiB
Duration : 1h 34mn
Overall bit rate : 4 258 Kbps
Writing application : VirtualDubMod 1.5.10.2 (build 2540/release)
Writing library : VirtualDubMod build 2540/release

Video
ID : 0
Format : MPEG-4 Visual
Format profile : Advanced [email protected]
Format settings, BVOP : 2
Format settings, QPel : No
Format settings, GMC : No warppoints
Format settings, Matrix : Default (H.263)
Codec ID : XVID
Codec ID/Hint : XviD
Duration : 1h 34mn
Bit rate : 3 633 Kbps
Width : 1 280 pixels
Height : 688 pixels
Display aspect ratio : 1.860
Frame rate : 23.976 fps
Color space : YUV
Chroma subsampling : 4:2:0
Bit depth : 8 bits
Scan type : Progressive
Compression mode : Lossy
Bits/(Pixel*Frame) : 0.172
Stream size : 2.39 GiB (85%)
Writing library : XviD 1.2.1 (UTC 2008-12-04)

Audio
ID : 1
Format : AC-3
Format/Info : Audio Coding 3
Mode extension : CM (complete main)
Codec ID : 2000
Duration : 1h 34mn
Bit rate mode : Constant
Bit rate : 448 Kbps
Channel(s) : 6 channels
Channel positions : Front: L C R, Side: L R, LFE
Sampling rate : 48.0 KHz
Bit depth : 16 bits
Compression mode : Lossy
Stream size : 302 MiB (11%)
Alignment : Split accross interleaves