Dragon Crusaders 2011 BDRip Xvid Ac3 UnKnOwN



IMDB :
http://www.imdb.com/title/tt1999141/



Single Wupload :
http://www.wupload.com/file/269129871/dcuNkNown.avi.rar

Single Fileserve :
http://www.fileserve.com/file/JMZXZkQ/dcuNkNown.avi.rar

Single Filejungle :
http://www.filejungle.com/f/AjV8cm/dcuNkNown.avi.rar

Single Filesonic :
http://www.filesonic.com/file/228532...NkNown.avi.rar

Wupload :
http://www.wupload.com/file/26898717...Nown.part1.rar
http://www.wupload.com/file/26899617...Nown.part2.rar
http://www.wupload.com/file/26892001...Nown.part3.rar

Fileserve :
http://www.fileserve.com/file/UYSdcd...Nown.part1.rar
http://www.fileserve.com/file/wGbdJB...Nown.part2.rar
http://www.fileserve.com/file/kmnZ6P...Nown.part3.rar

Filejungle :
http://www.filejungle.com/f/GGwCc6/dcuNkNown.part1.rar
http://www.filejungle.com/f/AxYrZ3/dcuNkNown.part2.rar
http://www.filejungle.com/f/aU3q3z/dcuNkNown.part3.rar

Filesonic :
http://www.filesonic.com/file/228533...Nown.part1.rar
http://www.filesonic.com/file/228533...Nown.part2.rar
http://www.filesonic.com/file/228533...Nown.part3.rar

PLEASE REPLY IF YOU LIKE MY POST!

SCREENSHOT :


NFO :
General
Complete name : dcuNkNown.avi
Format : AVI
Format/Info : Audio Video Interleave
File size : 1.20 GiB
Duration : 1h 30mn
Overall bit rate : 1 893 Kbps

Video
ID : 0
Format : MPEG-4 Visual
Format profile : Advanced [email protected]
Format settings, BVOP : 2
Format settings, QPel : No
Format settings, GMC : No warppoints
Format settings, Matrix : Default (H.263)
Codec ID : XVID
Codec ID/Hint : XviD
Duration : 1h 30mn
Bit rate : 1 498 Kbps
Width : 680 pixels
Height : 364 pixels
Display aspect ratio : 1.868
Frame rate : 23.976 fps
Color space : YUV
Chroma subsampling : 4:2:0
Bit depth : 8 bits
Scan type : Progressive
Compression mode : Lossy
Bits/(Pixel*Frame) : 0.252
Stream size : 971 MiB (79%)
Writing library : XviD 1.2.1 (UTC 2008-12-04)

Audio
ID : 1
Format : AC-3
Format/Info : Audio Coding 3
Mode extension : CM (complete main)
Codec ID : 2000
Duration : 1h 30mn
Bit rate mode : Constant
Bit rate : 384 Kbps
Channel(s) : 6 channels
Channel positions : Front: L C R, Side: L R, LFE
Sampling rate : 48.0 KHz
Bit depth : 16 bits
Compression mode : Lossy
Stream size : 249 MiB (20%)
Alignment : Aligned on interleaves
Interleave, duration : 32 ms (0.77 video frame)