FLYPAPER 2011 DVDRiP XviD-YOUWANTiT



IMDB :
http://www.imdb.com/title/tt1541160/



Single Wupload :
http://www.wupload.com/file/25598034...WANTiT.avi.rar

Single Fileserve :
http://www.fileserve.com/file/7QYbKp...WANTiT.avi.rar

Single Filejungle :
http://www.filejungle.com/f/aZ3e6k/F...WANTiT.avi.rar

Single Filesonic :
http://www.filesonic.com/file/226908...WANTiT.avi.rar

PLEASE REPLY IF YOU LIKE MY POST!

SCREENSHOT :


NFO :
PROUDLY PRESENTS
FLYPAPER 2011 DVDRiP XviD - YOUWANTiT

Title: FLYPAPER 2011 DVDRiP XviD - YOUWANTiT
Format: XViD
Language: FULL fucking English Audio :)
Subtitles: No

http://www.imdb.com/title/tt1541160/

A man caught in the middle of two simultaneous robberies at the same bank desperately
tries to protect the teller with whom he's secretly in love.

Video: OwN
Audio: OwN

General
Complete name : FLYPAPER 2011 DVDRiP XviD - YOUWANTiT.avi
Format : AVI
Format/Info : Audio Video Interleave
File size : 836 MiB
Duration : 1h 23mn
Overall bit rate : 1 398 Kbps
Writing application : MEncoder version Beta 4.4.5 building on 20110111

Video
ID : 0
Format : MPEG-4 Visual
Format profile : Advanced [email protected]
Format settings, BVOP : 2
Format settings, QPel : No
Format settings, GMC : No warppoints
Format settings, Matrix : Default (H.263)
Codec ID : XVID
Codec ID/Hint : XviD
Duration : 1h 23mn
Bit rate : 945 Kbps
Width : 720 pixels
Height : 404 pixels
Display aspect ratio : 16:9
Frame rate : 23.976 fps
Color space : YUV
Chroma subsampling : 4:2:0
Bit depth : 8 bits
Scan type : Progressive
Compression mode : Lossy
Bits/(Pixel*Frame) : 0.135
Stream size : 565 MiB (68%)
Writing library : XviD 1.2.1 (UTC 2008-12-04)

Audio
ID : 1
Format : AC-3
Format/Info : Audio Coding 3
Mode extension : CM (complete main)
Codec ID : 2000
Duration : 1h 23mn
Bit rate mode : Constant
Bit rate : 448 Kbps
Channel(s) : 6 channels
Channel positions : Front: L C R, Side: L R, LFE
Sampling rate : 48.0 KHz
Bit depth : 16 bits
Compression mode : Lossy
Delay relative to video : 42ms
Stream size : 268 MiB (32%)
Alignment : Split accross interleaves
Interleave, duration : 500 ms (11.99 video frames)
Interleave, preload duration : 500 ms

Release Notes:

Hello there,Here we are with a fine release to share with you all;) FLYPAPER 2011 DVDRiP XviD - YOUWANTiT
a pretty straight forward rip on this one as dvdr was used as source files

Didnt play with anything ;)

And yes theres plenty of f******g swearing in this c*** of a release, theres loads of f***ks and b*******S
can be heard as its r1 retail ;)

Greetz and MASSIVE MASSIVE Respect goes to IMAGiNE,rfcgazza,wob,Aft3rMath,RX,Toffee1878,DTRG, VISUALiSE and everyone else we
know and respect sorry if we left anyone out...
Maybe more soon :)

YOU WANTED FLYPAPER 2011 DVDRiP
NOW