The Bleeding House 2011 DVDRip Xvid BigPerm-LKRG



IMDB :
http://www.imdb.com/title/tt1535566/



Single Wupload :
http://www.wupload.com/file/25352775...P-LKRG.avi.rar

Single Fileserve :
http://www.fileserve.com/file/e9gEff...P-LKRG.avi.rar

Single Filejungle :
http://www.filejungle.com/f/3WM85y/T...P-LKRG.avi.rar

Single Filesonic :
http://www.filesonic.com/file/226496...P-LKRG.avi.rar

PLEASE REPLY IF YOU LIKE MY POST!

SCREENSHOT :


NFO :
The Bleeding House 2011 DVDRip Xvid BigPerm LKRG
Description


Click To Resize

A stranger with mysterious intentions comes to stay the night at a secluded country home, but what
he finds inside is a family torn apart by a violent past and a secret more deadly than he expected.



Click To Resize


Encoded By .......: BigPerm1828
Runtime ..........: 1h 26mn
File Size ........: 723 MB
Resolution .......: 640 x 272
IMDb URL .........: http://www.imdb.com/title/tt1535566/
Genre ............: Horror,Thriller
Language .........: English
Subtitles ........: None
Video
ID : 0
Format : MPEG-4 Visual
Format profile : Advanced [email protected]
Format settings, BVOP : Yes
Format settings, QPel : No
Format settings, GMC : No warppoints
Format settings, Matrix : Default (H.263)
Muxing mode : Packed bitstream
Codec ID : XVID
Codec ID/Hint : XviD
Duration : 1h 26mn
Bit rate : 771 Kbps
Width : 640 pixels
Height : 272 pixels
Display aspect ratio : 2.35:1
Frame rate : 29.970 fps
Color space : YUV
Chroma subsampling : 4:2:0
Bit depth : 8 bits
Scan type : Progressive
Compression mode : Lossy
Bits/(Pixel*Frame) : 0.148
Stream size : 478 MiB (66%)
Writing library : XviD 1.2.1 (UTC 2008-12-04)
Audio
ID : 1
Format : AC-3
Format/Info : Audio Coding 3
Mode extension : CM (complete main)
Codec ID : 2000
Duration : 1h 26mn
Bit rate mode : Constant
Bit rate : 384 Kbps
Channel(s) : 6 channels
Channel positions : Front: L C R, Side: L R, LFE
Sampling rate : 48.0 KHz
Bit depth : 16 bits
Compression mode : Lossy
Stream size : 238 MiB (33%)
Alignment : Aligned on interleaves
Interleave, duration : 33 ms (1.00 video frame)
Interleave, preload duration : 512 ms