Judy Moody and the Not Bummer Summer BRRip Xvid AC3-Anarchy



IMDB :
http://www.imdb.com/title/tt1547230/



Single Wupload :
http://www.wupload.com/file/25252401...narchy.avi.rar

Single Fileserve :
http://www.fileserve.com/file/hUhwNK...narchy.avi.rar

Single Filejungle :
http://www.filejungle.com/f/RQKWNg/J...narchy.avi.rar

Single Filesonic :
http://www.filesonic.com/file/226302...narchy.avi.rar

Wupload :
http://www.wupload.com/file/25252382...rchy.part1.rar
http://www.wupload.com/file/25252405...rchy.part2.rar
http://www.wupload.com/file/25252400...rchy.part3.rar
http://www.wupload.com/file/25252407...rchy.part4.rar

Fileserve :
http://www.fileserve.com/file/efTf5X...rchy.part1.rar
http://www.fileserve.com/file/fnJEng...rchy.part2.rar
http://www.fileserve.com/file/aQdrgS...rchy.part3.rar
http://www.fileserve.com/file/SsbWQR...rchy.part4.rar

Filejungle :
http://www.filejungle.com/f/vqDUgj/J...rchy.part1.rar
http://www.filejungle.com/f/AFS8Zb/J...rchy.part2.rar
http://www.filejungle.com/f/n4UkHc/J...rchy.part3.rar
http://www.filejungle.com/f/eT2jTH/J...rchy.part4.rar

Filesonic :
http://www.filesonic.com/file/226302...rchy.part1.rar
http://www.filesonic.com/file/226302...rchy.part2.rar
http://www.filesonic.com/file/226303...rchy.part3.rar
http://www.filesonic.com/file/226303...rchy.part4.rar

PLEASE REPLY IF YOU LIKE MY POST!

SCREENSHOT :


NFO :
ÚÄÄÄÄÄÄÄÄÄÄÄÄÄÄÄÄÄÄÄÄÄÄÄÄÄÄÄÄÄÄÄÄÄÄÄÄÄÄÄÄÄÄÄÄÄÄÄÄÄÄÄÄÄÄÄÄÄÄÄÄÄÄÄÄÄÄÄÄÄÄÄÄÄÄÄÄ¿
³ ³
³ Info ... ³
³ Title : Judy Moody & the Not Bummer Summer (2011) BRRip Xvid AC3-Anarchy³
³ Genre : Comedy | Family ³
³ Language : English ³
³ Subs : ³
³ Size : 1.36 GiB ³
³ Source : Bluray x264-Counterfeit(Thanks) ³ ³
ÀÄÄÄÄÄÄÄÄÄÄÄÄÄÄÄÄÄÄÄÄÄÄÄÄÄÄÄÄÄÄÄÄÄÄÄÄÄÄÄÄÄÄÄÄÄÄÄÄÄÄÄÄÄÄÄÄÄÄÄÄÄÄÄÄÄÄÄÄÄÄÄÄÄÄÄÄÙ


links ....
> RT : http://www.rottentomatoes.com/m/judy..._bummer_summer
> imdb : http://www.imdb.com/title/tt1547230/<
> youtube : http://www.youtube.com/watch?v=VIWyjAiQVFc<

ÚÄÄÄÄÄÄÄÄÄÄÄÄÄÄÄÄÄÄÄÄÄÄÄÄÄÄÄÄÄÄÄÄÄÄÄÄÄÄÄÄÄÄÄÄÄÄÄÄÄÄÄÄÄÄÄÄÄÄÄÄÄÄÄÄÄÄÄÄÄÄÄÄÄÄÄÄ¿
³ ³
³ Plot ... ³
³ The film chronicles Judy Moody's (Jordana Beatty) adventures in which she ³
³ sets out to have the most thrilling summer of her life with the help of ³
³ her little brother Stink (Parris Mosteller) and fun-loving Aunt Opal ³
³ (Heather Graham). ³
³ ³
ÀÄÄÄÄÄÄÄÄÄÄÄÄÄÄÄÄÄÄÄÄÄÄÄÄÄÄÄÄÄÄÄÄÄÄÄÄÄÄÄÄÄÄÄÄÄÄÄÄÄÄÄÄÄÄÄÄÄÄÄÄÄÄÄÄÄÄÄÄÄÄÄÄÄÄÄÄÙ

ÚÄÄÄÄÄÄÄÄÄÄÄÄÄÄÄÄÄÄÄÄÄÄÄÄÄÄÄÄÄÄÄÄÄÄÄÄÄÄÄÄÄÄÄÄÄÄÄÄÄÄÄÄÄÄÄÄÄÄÄÄÄÄÄÄÄÄÄÄÄÄÄÄÄÄÄÄ¿
³ ³
³ Video/Audio ... ³
³ Video ³
³ ID : 0 ³
³ Format : MPEG-4 Visual ³
³ Format profile : Advanced [email protected] ³
³ Format settings, BVOP : 2 ³
³ Format settings, QPel : No ³
³ Format settings, GMC : No warppoints ³
³ Format settings, Matrix : Default (H.263) ³
³ Muxing mode : Packed bitstream ³
³ Codec ID : XVID ³
³ Codec ID/Hint : XviD ³
³ Duration : 1h 31mn ³
³ Bit rate : 1 680 Kbps ³
³ Width : 704 pixels ³
³ Height : 384 pixels ³
³ Display aspect ratio : 16:9 ³
³ Frame rate : 23.976 fps ³
³ Color space : YUV ³
³ Chroma subsampling : 4:2:0 ³
³ Bit depth : 8 bits ³
³ Scan type : Progressive ³
³ Compression mode : Lossy ³
³ Bits/(Pixel*Frame) : 0.259 ³
³ Stream size : 1.07 GiB (79%) ³
³ Writing library : XviD 1.1.0 (UTC 2005-11-22) ³
³ ³
³ Audio ³
³ ID : 1 ³
³ Format : AC-3 ³
³ Format/Info : Audio Coding 3 ³
³ Mode extension : CM (complete main) ³
³ Codec ID : 2000 ³
³ Duration : 1h 31mn ³
³ Bit rate mode : Constant ³
³ Bit rate : 448 Kbps ³
³ Channel(s) : 6 channels ³
³ Channel positions : Front: L C R, Side: L R, LFE ³
³ Sampling rate : 48.0 KHz ³
³ Bit depth : 16 bits ³
³ Compression mode : Lossy ³
³ Stream size : 293 MiB (21%) ³
³ Alignment : Split accross interleaves ³
³ Interleave, duration : 42 ms (1.00 video frame) ³
³ Interleave, preload duration : 500 ms ³
³ ³
³ ³
ÀÄÄÄÄÄÄÄÄÄÄÄÄÄÄÄÄÄÄÄÄÄÄÄÄÄÄÄÄÄÄÄÄÄÄÄÄÄÄÄÄÄÄÄÄÄÄÄÄÄÄÄÄÄÄÄÄÄÄÄÄÄÄÄÄÄÄÄÄÄÄÄÄÄÄÄÄÙ


Greets to all P2P groups