You.Dont.Know.Jack.2010.DVDRip.XviD-BBnRG



IMDB :
http://www.imdb.com/title/tt1132623/



Single Wupload :
http://www.wupload.com/file/24641084...-BBnRG.avi.rar

Single Fileserve :
http://www.fileserve.com/file/hFSsVD...-BBnRG.avi.rar

Single Filejungle :
http://www.filejungle.com/f/dHsMd3/Y...-BBnRG.avi.rar

Single Filesonic :
http://www.filesonic.com/file/225831...-BBnRG.avi.rar

Wupload :
http://www.wupload.com/file/24640521...BnRG.part1.rar
http://www.wupload.com/file/24640582...BnRG.part2.rar
http://www.wupload.com/file/24640793...BnRG.part3.rar
http://www.wupload.com/file/24640791...BnRG.part4.rar

Fileserve :
http://www.fileserve.com/file/aFPEer...BnRG.part1.rar
http://www.fileserve.com/file/h7FCu2...BnRG.part2.rar
http://www.fileserve.com/file/JKCQ88...BnRG.part3.rar
http://www.fileserve.com/file/kcb6hE...BnRG.part4.rar

Filejungle :
http://www.filejungle.com/f/wb4Ukv/Y...BnRG.part1.rar
http://www.filejungle.com/f/mdXSgu/Y...BnRG.part2.rar
http://www.filejungle.com/f/pVdGdv/Y...BnRG.part3.rar
http://www.filejungle.com/f/H846eK/Y...BnRG.part4.rar

Filesonic :
http://www.filesonic.com/file/225831...BnRG.part1.rar
http://www.filesonic.com/file/225831...BnRG.part2.rar
http://www.filesonic.com/file/225831...BnRG.part3.rar
http://www.filesonic.com/file/225831...BnRG.part4.rar

PLEASE REPLY IF YOU LIKE MY POST!

SCREENSHOT :


NFO :
General Information
Complete name : You Don't Know Jack (2010) DVDRip XviD BBnRG.avi
Format : AVI
Format/Info : Audio Video Interleave
File size : 1.48 GiB
Duration : 2h 9mn
Overall bit rate : 1 645 Kbps

Video
ID : 0
Format : MPEG-4 Visual
Format profile : Advanced [email protected]
Format settings, BVOP : 2
Format settings, QPel : No
Format settings, GMC : No warppoints
Format settings, Matrix : Default (H.263)
Codec ID : XVID
Codec ID/Hint : XviD
Duration : 2h 9mn
Bit rate : 1 253 Kbps
Width : 720 pixels
Height : 400 pixels
Display aspect ratio : 16:9
Frame rate : 25.000 fps
Color space : YUV
Chroma subsampling : 4:2:0
Bit depth : 8 bits
Scan type : Progressive
Compression mode : Lossy
Bits/(Pixel*Frame) : 0.174
Stream size : 1.13 GiB (76%)
Writing library : XviD 1.2.1 (UTC 2008-12-04)

Audio
ID : 1
Format : AC-3
Format/Info : Audio Coding 3
Mode extension : CM (complete main)
Codec ID : 2000
Duration : 2h 9mn
Bit rate mode : Constant
Bit rate : 384 Kbps
Channel(s) : 6 channels
Channel positions : Front: L C R, Side: L R, LFE
Sampling rate : 48.0 KHz
Bit depth : 16 bits
Compression mode : Lossy
Stream size : 354 MiB (23%)
Alignment : Aligned on interleaves
Interleave, duration : 64 ms (1.60 video frames)
Interleave, preload duration : 192 ms

Notes
Encoder: FridayToker
Source(s): iGNiTiON (thanks)

Another fine release from BBnRG

We aim to bring you only the best

Summary
134 min - Biography | Drama

Dr. Jack Kevorkian (1928 - 2011 ) in the 1990s, when he defies Michigan law assisting the suicide of terminally-ill persons. Support comes from his sister, a lab tech, the Hemlock Society president, and a lawyer. The child of survivors of the Armenian genocide interviews applicants: his sister video tapes them. He assembles a device allowing a person to initiate a three-chemical intravenous drip. The local D.A., the governor, and the Legislature respond. In court scenes, Kevorkian is sometimes antic. He's single-minded about giving dying individuals the right to determine how their lives will end. He wants the Supreme Court to rule. He picks a fight he can't win: is it hubris or heroism?

Cast
Al Pacino ... Jack Kevorkian
Brenda Vaccaro ... Margo Janus
John Goodman ... Neal Nicol
Deirdre O'Connell ... Linda
Todd Susman ... Stan Levy
Adam Lubarsky ... Brian Russell
Jennifer Mudge ... Female Reporter
Jeremy Bobb ... David Rivlin
Rutanya Alda ... Vendor
James Urbaniak ... Jack Lessenberry
Henny Russell ... Oakhill Spokesperson
Henry Strozier ... Oakhill Doctor
Sandra Seacat ... Janet Adkins
Susan Sarandon ... Janet Good
Neil Brooks Cunningham ... Rod Adkins

IMDb Link:http://www.imdb.com/title/tt1132623/