TITLE



IMDB :
http://www.imdb.com/title/tt1334521/



Single Wupload :
http://www.wupload.com/file/23049746...iD.P2P.avi.rar

Single Fileserve :
http://www.fileserve.com/file/BtHqRG...iD.P2P.avi.rar

Single Filesonic :
http://www.filesonic.com/file/224758...iD.P2P.avi.rar

Wupload :
http://www.wupload.com/file/23036436....P2P.part1.rar
http://www.wupload.com/file/23030783....P2P.part2.rar
http://www.wupload.com/file/23028719....P2P.part3.rar
http://www.wupload.com/file/23024239....P2P.part4.rar

Fileserve :
http://www.fileserve.com/file/SN72qX....P2P.part1.rar
http://www.fileserve.com/file/AttG75....P2P.part2.rar
http://www.fileserve.com/file/Q8Q5Vu....P2P.part3.rar
http://www.fileserve.com/file/32SPkV....P2P.part4.rar

Filesonic :
http://www.filesonic.com/file/224745....P2P.part1.rar
http://www.filesonic.com/file/224737....P2P.part2.rar
http://www.filesonic.com/file/224735....P2P.part3.rar
http://www.filesonic.com/file/224721....P2P.part4.rar

PLEASE REPLY IF YOU LIKE MY POST!

SCREENSHOT :


NFO :
General
Complete name : C:\windows\profiles\admin\Desktop\rip\Coach 2010 DVD RIP XviD [PDU - ENCODE].avi
Format : AVI
Format/Info : Audio Video Interleave
File size : 1.37 GiB
Duration : 1h 26mn
Overall bit rate : 2 255 Kbps
Writing application : FairUse Wizard
Writing library : The best and REALLY easy backup tool

Video
ID : 0
Format : MPEG-4 Visual
Format profile : Advanced [email protected]
Format settings, BVOP : 2
Format settings, QPel : No
Format settings, GMC : No warppoints
Format settings, Matrix : Default (H.263)
Muxing mode : Packed bitstream
Codec ID : XVID
Codec ID/Hint : XviD
Duration : 1h 26mn
Bit rate : 2 053 Kbps
Width : 688 pixels
Height : 384 pixels
Display aspect ratio : 16:9
Frame rate : 23.976 fps
Color space : YUV
Chroma subsampling : 4:2:0
Bit depth : 8 bits
Scan type : Progressive
Compression mode : Lossy
Bits/(Pixel*Frame) : 0.324
Stream size : 1.24 GiB (91%)
Writing library : XviD 1.2.0.dev47 (UTC 2006-11-01)

Audio
ID : 1
Format : MPEG Audio
Format version : Version 1
Format profile : Layer 3
Mode : Joint stereo
Mode extension : MS Stereo
Codec ID : 55
Codec ID/Hint : MP3
Duration : 1h 26mn
Bit rate mode : Constant
Bit rate : 192 Kbps
Channel(s) : 2 channels
Sampling rate : 48.0 KHz
Compression mode : Lossy
Stream size : 119 MiB (9%)
Alignment : Aligned on interleaves
Interleave, duration : 42 ms (1.00 video frame)
Interleave, preload duration : 504 ms
Writing library : LAME3.97
Encoding settings : -m j -V 4 -q 2 -lowpass 18.6 -b 192