ZhuZhu Pets Quest for Zhu 2011 DVDRip XVID AC3 HQ Hive-CM8



IMDB :
http://www.zhuniverse.com/



Single Wupload :
http://www.wupload.com/file/22795637...ve-CM8.avi.rar

Single Fileserve :
http://www.fileserve.com/file/fTJ2ua...ve-CM8.avi.rar

Single Filesonic :
http://www.filesonic.com/file/224454...ve-CM8.avi.rar

Wupload :
http://www.wupload.com/file/22799907...-CM8.part1.rar
http://www.wupload.com/file/22806595...-CM8.part2.rar
http://www.wupload.com/file/22806339...-CM8.part3.rar

Fileserve :
http://www.fileserve.com/file/nzyNVs...-CM8.part1.rar
http://www.fileserve.com/file/tfe2aT...-CM8.part2.rar
http://www.fileserve.com/file/bKPJxu...-CM8.part3.rar

Filesonic :
http://www.filesonic.com/file/224455...-CM8.part1.rar
http://www.filesonic.com/file/224455...-CM8.part2.rar
http://www.filesonic.com/file/224455...-CM8.part3.rar

PLEASE REPLY IF YOU LIKE MY POST!

SCREENSHOT :


NFO :
General
Complete name : ZhuZhu.Pets.Quest.for.Zhu.2011.DVDRip.XVID.AC3.HQ.Hive-CM8.avi
Format : AVI
Format/Info : Audio Video Interleave
File size : 1.25 GiB
Duration : 1h 12mn
Overall bit rate : 2 455 Kbps
Writing application : Nandub v1.0rc2
Writing library : Nandub build 1853/release

Video
ID : 0
Format : MPEG-4 Visual
Format profile : Advanced [email protected]
Format settings, BVOP : 2
Format settings, QPel : Yes
Format settings, GMC : No warppoints
Format settings, Matrix : Default (H.263)
Muxing mode : Packed bitstream
Codec ID : XVID
Codec ID/Hint : XviD
Duration : 1h 12mn
Bit rate : 1 997 Kbps
Width : 720 pixels
Height : 400 pixels
Display aspect ratio : 16:9
Frame rate : 23.976 fps
Color space : YUV
Chroma subsampling : 4:2:0
Bit depth : 8 bits
Scan type : Progressive
Compression mode : Lossy
Bits/(Pixel*Frame) : 0.289
Stream size : 1.02 GiB (81%)
Writing library : XviD 1.2.1 (UTC 2008-12-04)

Audio
ID : 1
Format : AC-3
Format/Info : Audio Coding 3
Mode extension : CM (complete main)
Codec ID : 2000
Duration : 1h 12mn
Bit rate mode : Constant
Bit rate : 448 Kbps
Channel(s) : 6 channels
Channel positions : Front: L C R, Side: L R, LFE
Sampling rate : 48.0 KHz
Bit depth : 16 bits
Compression mode : Lossy
Stream size : 234 MiB (18%)
Alignment : Split accross interleaves
Interleave, duration : 42 ms (1.00 video frame)
Interleave, preload duration : 500 ms