Terri LIMITED DVDRip XviD-TWiZTED



IMDB :
http://www.imdb.com/title/tt1687281/



Sample :
http://www.filesonic.com/file/224360...sample.avi.rar
http://www.wupload.com/file/22664505...sample.avi.rar
http://www.fileserve.com/file/Jtjz7X...sample.avi.rar

Single Wupload :
http://www.wupload.com/file/22661345...-terr-xvid.avi
http://www.wupload.com/file/226645024/Subs.rar

Single Fileserve :
http://www.fileserve.com/file/3fwsm8...r-xvid.avi.rar
http://www.fileserve.com/file/C29RxsJ/Subs.rar

Single Filesonic :
http://www.filesonic.com/file/224363...r-xvid.avi.rar
http://www.filesonic.com/file/2243605844/Subs.rar

PLEASE REPLY IF YOU LIKE MY POST!

SCREENSHOT :


NFO :
General
Complete name : twiz-terr-xvid.avi
Format : AVI
Format/Info : Audio Video Interleave
File size : 700 MiB
Duration : 1h 44mn
Overall bit rate : 933 Kbps
Writing application : VirtualDubMod 1.5.10.2 (build 2540/release)
Writing library : VirtualDubMod build 2540/release

Video
ID : 0
Format : MPEG-4 Visual
Format profile : Advanced [email protected]
Format settings, BVOP : 2
Format settings, QPel : No
Format settings, GMC : No warppoints
Format settings, Matrix : Default (MPEG)
Codec ID : XVID
Codec ID/Hint : XviD
Duration : 1h 44mn
Bit rate : 795 Kbps
Width : 624 pixels
Height : 336 pixels
Display aspect ratio : 1.857
Frame rate : 23.976 fps
Color space : YUV
Chroma subsampling : 4:2:0
Bit depth : 8 bits
Scan type : Progressive
Compression mode : Lossy
Bits/(Pixel*Frame) : 0.158
Stream size : 596 MiB (85%)
Writing library : XviD 1.2.1 (UTC 2008-12-04)

Audio
ID : 1
Format : MPEG Audio
Format version : Version 1
Format profile : Layer 3
Mode : Joint stereo
Mode extension : MS Stereo
Codec ID : 55
Codec ID/Hint : MP3
Duration : 1h 44mn
Bit rate mode : Variable
Bit rate : 128 Kbps
Channel(s) : 2 channels
Sampling rate : 48.0 KHz
Compression mode : Lossy
Stream size : 94.6 MiB (13%)
Alignment : Aligned on interleaves
Interleave, duration : 24 ms (0.58 video frame)
Interleave, preload duration : 146 ms
Writing library : LAME3.90.
Encoding settings : -m j -V 4 -q 2 -lowpass 17.6 --abr 128