Max Schmeling 2010 SUBBED DVDRip XviD-SPRiNTER



IMDB :
http://www.imdb.com/title/tt1777608/



Single Wupload :
http://www.wupload.com/file/22593694...meling-cd1.avi
http://www.wupload.com/file/22593694...meling-cd2.avi

Single Fileserve :
http://www.fileserve.com/file/AGX3px...ng-cd1.avi.rar
http://www.fileserve.com/file/GbwP6F...ng-cd2.avi.rar

Single Filesonic :
http://www.filesonic.com/file/224304...ng-cd1.avi.rar
http://www.filesonic.com/file/224304...ng-cd2.avi.rar

PLEASE REPLY IF YOU LIKE MY POST!

SCREENSHOT :



NFO :
Format : AVI
Format/Info : Audio Video Interleave
File size : 1.37 GiB
Duration : 1h 57mn
Overall bit rate : 1 664 Kbps
Writing application : Nandub v1.0rc2
Writing library : Nandub build 1852/release

Video
ID : 0
Format : MPEG-4 Visual
Format profile : Advanced [email protected]
Format settings, BVOP : 2
Format settings, QPel : No
Format settings, GMC : No warppoints
Format settings, Matrix : Default (H.263)
Codec ID : XVID
Codec ID/Hint : XviD
Duration : 1h 57mn
Bit rate : 1 528 Kbps
Width : 624 pixels
Height : 272 pixels
Display aspect ratio : 2.25:1
Frame rate : 25.000 fps
Color space : YUV
Chroma subsampling : 4:2:0
Bit depth : 8 bits
Scan type : Progressive
Compression mode : Lossy
Bits/(Pixel*Frame) : 0.360
Stream size : 1.26 GiB (92%)
Writing library : XviD 64

Audio
ID : 1
Format : MPEG Audio
Format version : Version 1
Format profile : Layer 3
Mode : Joint stereo
Mode extension : MS Stereo
Codec ID : 55
Codec ID/Hint : MP3
Duration : 1h 57mn
Bit rate mode : Variable
Bit rate : 128 Kbps
Channel(s) : 2 channels
Sampling rate : 48.0 KHz
Compression mode : Lossy
Stream size : 103 MiB (7%)
Alignment : Aligned on interleaves
Interleave, duration : 24 ms (0.60 video frame)
Interleave, preload duration : 434 ms
Writing library : LAME3.98r
Encoding settings : -m j -V 4 -q 3 -lowpass 17 --abr 128