The Dead Matter 2010 BRRiP XViD-OCW



IMDB :
http://www.imdb.com/title/tt1055363/



Single Wupload :
http://www.wupload.com/file/22470842...iD-OCW.avi.rar

Single Fileserve :
http://www.fileserve.com/file/5Fr4Nb...iD-OCW.avi.rar

Single Filesonic :
http://www.filesonic.com/file/224249...iD-OCW.avi.rar

PLEASE REPLY IF YOU LIKE MY POST!

SCREENSHOT :


NFO :
The.Dead.Matter.2010.BRRiP.XViD-OCW
http://www.imdb.com/title/tt1055363/

Horror

Tells the story of a vampire relic with occult powers that falls into the hands of a grief-stricken young woman who will do anything to contact her dead brother.

Director: Edward Douglas
Writers: Edward Douglas, Tony Demci
Stars: Andrew Divoff, Jason Carter and Tom Savini


General
Complete name : The.Dead.Matter.2010.BRRiP.XViD-OCW.avi
Format : AVI
Format/Info : Audio Video Interleave
File size : 654 MiB
Duration : 1h 29mn
Overall bit rate : 1 018 Kbps

Video
ID : 0
Format : MPEG-4 Visual
Format profile : Advanced [email protected]
Format settings, BVOP : 2
Format settings, QPel : No
Format settings, GMC : No warppoints
Format settings, Matrix : Default (H.263)
Codec ID : XVID
Codec ID/Hint : XviD
Duration : 1h 29mn
Bit rate : 753 Kbps
Width : 640 pixels
Height : 352 pixels
Display aspect ratio : 16:9
Frame rate : 25.000 fps
Color space : YUV
Chroma subsampling : 4:2:0
Bit depth : 8 bits
Scan type : Progressive
Compression mode : Lossy
Bits/(Pixel*Frame) : 0.134
Stream size : 484 MiB (74%)
Writing library : XviD 63

Audio
ID : 1
Format : MPEG Audio
Format version : Version 1
Format profile : Layer 3
Mode : Joint stereo
Codec ID : 55
Codec ID/Hint : MP3
Duration : 1h 29mn
Bit rate mode : Constant
Bit rate : 256 Kbps
Channel(s) : 2 channels
Sampling rate : 44.1 KHz
Compression mode : Lossy
Stream size : 164 MiB (25%)
Alignment : Split accross interleaves
Interleave, duration : 40 ms (1.00 video frame)
Interleave, preload duration : 500 ms
Writing library : LAME3.98.4