Monte.Carlo.2011.BRRiP.XViD.AC3-FLAWL3SS



IMDB :
http://www.imdb.com/title/tt1067774/



Single Wupload :
http://www.wupload.com/file/21922013...AWL3SS.avi.rar

Single Fileserve :
http://www.fileserve.com/file/kgCVfE...AWL3SS.avi.rar

Single Filesonic :
http://www.filesonic.com/file/223429...AWL3SS.avi.rar

Wupload :
http://www.wupload.com/file/21911687...L3SS.part1.rar
http://www.wupload.com/file/21910767...L3SS.part2.rar
http://www.wupload.com/file/21913677...L3SS.part3.rar
http://www.wupload.com/file/21911682...L3SS.part4.rar

Fileserve :
http://www.fileserve.com/file/ke77vz...L3SS.part1.rar
http://www.fileserve.com/file/CQCm8X...L3SS.part2.rar
http://www.fileserve.com/file/96aTBF...L3SS.part3.rar
http://www.fileserve.com/file/2YPhTw...L3SS.part4.rar

Filesonic :
http://www.filesonic.com/file/223430...L3SS.part1.rar
http://www.filesonic.com/file/223430...L3SS.part2.rar
http://www.filesonic.com/file/223430...L3SS.part3.rar
http://www.filesonic.com/file/223430...L3SS.part4.rar

PLEASE REPLY IF YOU LIKE MY POST!

SCREENSHOT :


NFO :
General
Complete name : Monte.Carlo.2011.BRRiP.XViD.AC3-FLAWL3SS.avi
Format : AVI
Format/Info : Audio Video Interleave
File size : 1.64 GiB
Duration : 1h 48mn
Overall bit rate : 2 155 Kbps
Writing application : VirtualDubMod 1.5.10.2 (build 2540/release)
Writing library : VirtualDubMod build 2540/release

Video
ID : 0
Format : MPEG-4 Visual
Format profile : Advanced [email protected]
Format settings, BVOP : 2
Format settings, QPel : No
Format settings, GMC : No warppoints
Format settings, Matrix : Default (H.263)
Codec ID : XVID
Codec ID/Hint : XviD
Duration : 1h 48mn
Bit rate : 1 697 Kbps
Width : 720 pixels
Height : 384 pixels
Display aspect ratio : 1.875
Frame rate : 23.976 fps
Color space : YUV
Chroma subsampling : 4:2:0
Bit depth : 8 bits
Scan type : Progressive
Compression mode : Lossy
Bits/(Pixel*Frame) : 0.256
Stream size : 1.29 GiB (79%)
Writing library : XviD 1.2.1 (UTC 2008-12-04)

Audio
ID : 1
Format : AC-3
Format/Info : Audio Coding 3
Mode extension : CM (complete main)
Codec ID : 2000
Duration : 1h 48mn
Bit rate mode : Constant
Bit rate : 448 Kbps
Channel(s) : 6 channels
Channel positions : Front: L C R, Side: L R, LFE
Sampling rate : 48.0 KHz
Bit depth : 16 bits
Compression mode : Lossy
Stream size : 349 MiB (21%)
Alignment : Split accross interleaves
Interleave, duration : 42 ms (1.00 video frame)
Interleave, preload duration : 500 ms