Bad.Teacher.2011.480p.BRRip.x264.AC3-BTRG



IMDB :
http://www.imdb.com/title/tt1284575/



Single Wupload :
http://www.wupload.com/file/21893560...3-BTRG.avi.rar

Single Fileserve :
http://www.fileserve.com/file/RQhFFp...3-BTRG.avi.rar

Single Filesonic :
http://www.filesonic.com/file/223411...3-BTRG.avi.rar

Wupload :
http://www.wupload.com/file/21893230...BTRG.part1.rar
http://www.wupload.com/file/21893225...BTRG.part2.rar
http://www.wupload.com/file/21893024...BTRG.part3.rar
http://www.wupload.com/file/21892942...BTRG.part4.rar

Fileserve :
http://www.fileserve.com/file/p8KjCy...BTRG.part1.rar
http://www.fileserve.com/file/kGD9Fq...BTRG.part2.rar
http://www.fileserve.com/file/JZYWqK...BTRG.part3.rar
http://www.fileserve.com/file/d5CtZp...BTRG.part4.rar

Filesonic :
http://www.filesonic.com/file/223412...BTRG.part1.rar
http://www.filesonic.com/file/223412...BTRG.part2.rar
http://www.filesonic.com/file/223412...BTRG.part3.rar
http://www.filesonic.com/file/223412...BTRG.part4.rar

PLEASE REPLY IF YOU LIKE MY POST!

SCREENSHOT :


NFO :
General
Complete name : Bad.Teacher.2011.480p.BRRip.x264.AC3-BTRG.avi
Format : AVI
Format/Info : Audio Video Interleave
File size : 1.45 GiB
Duration : 1h 37mn
Overall bit rate : 2 125 Kbps

Video
ID : 0
Format : MPEG-4 Visual
Format profile : Advanced [email protected]
Format settings, BVOP : 1
Format settings, QPel : No
Format settings, GMC : No warppoints
Format settings, Matrix : Custom
Codec ID : XVID
Codec ID/Hint : XviD
Duration : 1h 37mn
Bit rate : 1 669 Kbps
Width : 720 pixels
Height : 384 pixels
Display aspect ratio : 1.875
Frame rate : 23.976 fps
Color space : YUV
Chroma subsampling : 4:2:0
Bit depth : 8 bits
Scan type : Progressive
Compression mode : Lossy
Bits/(Pixel*Frame) : 0.252
Stream size : 1.14 GiB (79%)
Writing library : XviD 1.2.1 (UTC 2008-12-04)

Audio
ID : 1
Format : AC-3
Format/Info : Audio Coding 3
Mode extension : CM (complete main)
Codec ID : 2000
Duration : 1h 37mn
Bit rate mode : Constant
Bit rate : 448 Kbps
Channel(s) : 6 channels
Channel positions : Front: L C R, Side: L R, LFE
Sampling rate : 48.0 KHz
Bit depth : 16 bits
Compression mode : Lossy
Stream size : 313 MiB (21%)
Alignment : Aligned on interleaves
Interleave, duration : 64 ms (1.53 video frames)
Interleave, preload duration : 192 ms
Title : Ses