Bad Teacher (2011) R5 IMAGiNE


General:
Complete name: Bad.Teacher.2011.R5.IMAGiNE.avi
Format: AVI
Format/Info : Audio Video Interleave
File size: 699 MiB
Overall bit rate: 919 Kbps

Video:
ID: 0
Format: MPEG-4 Visual
Format profile: Advanced [email protected]
Format settings, BVOP: Yes
Format settings, QPel: No
Format settings, GMC: No warppoints
Format settings, Matrix: Default (MPEG)
Codec ID: XVID
Codec ID/Hint: XviD
Duration: 1h 46mn
Bit rate: 794 Kbps
Width: 640 pixels
Height: 272 pixels
Display aspect ratio: 2.35:1
Frame rate: 25.000 fps
Original frame rate: 23.976 fps
Color space: YUV
Chroma subsampling: 4:2:0
Bit depth: 8 bits
Scan type: Progressive
Bits/(Pixel*Frame): 0.182
Stream size: 603 MiB (86%)
Writing library: XviD 1.2.1 (UTC 2008-12-04)

Audio:
ID: 1
Format: MPEG Audio
Format version: Version 1
Format profile: Layer 3
Codec ID: 55
Codec ID/Hint: MP3
Duration: 1h 46mn
Bit rate mode: Constant
Bit rate: 112 Kbps
Channel(s): 2 channels
Sampling rate: 48.0 KHz
Stream size: 85.1 MiB (12%)
Alignment: Split accross interleaves
Interleave, duration: 24 ms (0.60 video frame)


Screenshot:







Download - Wupload:


http://www.wupload.com/file/21288946...R5.IMAGiNE.avi






Download - FileServe:


http://www.fileserve.com/file/k5qAPa...R5.IMAGiNE.avi