Green Lantern (2011) DVDR (xvid) NL Subs-DMT


http://www.imdb.com/title/tt1133985/
Language: English+Subs Duth
114 min | AVI | 640x272 | 23.976 fps | AC3 - 48.0 KHz | 900 MB
Genre: Action | Adventure | Fantasy
A test pilot is granted a mystical green ring that bestows him with otherworldly powers, as well as membership into an intergalactic squadron tasked with keeping peace within the universe.
iNFO :
Video
ID : 0
Format : MPEG-4 Visual
Format profile : [email protected]
Format settings, BVOP : No
Format settings, QPel : No
Format settings, GMC : No warppoints
Format settings, Matrix : Default (H.263)
Codec ID : XVID
Codec ID/Hint : XviD
Duration : 1h 53mn
Bit rate : 718 Kbps
Width : 640 pixels
Height : 272 pixels
Display aspect ratio : 2.35:1
Frame rate : 23.976 fps
Color space : YUV
Chroma subsampling : 4:2:0
Bit depth : 8 bits
Scan type : Progressive
Compression mode : Lossy
Bits/(Pixel*Frame) : 0.172
Stream size : 586 MiB (65%)
Writing library : Lavc52.62.0
Audio
ID : 1
Format : AC-3
Format/Info : Audio Coding 3
Mode extension : CM (complete main)
Codec ID : 2000
Duration : 1h 53mn
Bit rate mode : Constant
Bit rate : 384 Kbps
Channel(s) : 6 channels
Channel positions : Front: L C R, Side: L R, LFE
Sampling rate : 48.0 KHz
Bit depth : 16 bits
Compression mode : Lossy
Stream size : 313 MiB (35%)
Alignment : Split accross interleaves
Interleave, duration : 500 ms (11.99 video frames)
Interleave, preload duration : 500 ms



http://www.filesonic.com/file/216400...DMT.part01.rar
http://www.filesonic.com/file/216328...DMT.part02.rar
http://www.filesonic.com/file/216395...DMT.part03.rar


Wupload Mirrors

http://www.wupload.com/file/20655040...DMT.part01.rar
http://www.wupload.com/file/20655049...DMT.part02.rar
http://www.wupload.com/file/20654738...DMT.part03.rar


Fileserve Mirrors

http://www.fileserve.com/file/VvxBkS...DMT.part01.rar
http://www.fileserve.com/file/DGzVE9...DMT.part02.rar
http://www.fileserve.com/file/ndG6fb...DMT.part03.rar