Lord of the Dance 3D (2011) SWESUB DVDRip XviD AC3

A 3D movie version of Michael Flatley's Irish dance production


ID : 0
Format : MPEG-4 Visual
Format profile : Advanced [email protected]
Format settings, BVOP : Yes
Format settings, QPel : No
Format settings, GMC : No warppoints
Format settings, Matrix : Custom
Codec ID : XVID
Codec ID/Hint : XviD
Duration : 1h 24mn
Bit rate : 1 110 Kbps
Width : 640 pixels
Height : 304 pixels
Display aspect ratio : 2.2:1
Frame rate : 23.976 fps
Color space : YUV
Chroma subsampling : 4:2:0
Bit depth : 8 bits
Scan type : Progressive
Bits/(Pixel*Frame) : 0.238
Stream size : 1398 MiB
Writing library : XviD 1.2.1 (UTC 2008-12-04)

Audio
ID : 1
Format : MPEG Audio
Format version : Version 1
Format profile : Layer 3
Codec ID : 55
Codec ID/Hint : MP3
Duration : 1h 24mn
Bit rate mode : Constant
Bit rate : 128 Kbps
Channel(s) : 2 channels
Sampling rate : 44.1 KHz
Stream size : 77.7 MiB (10%)
Alignment : Split accross interleaves
Interleave, duration : 42 ms (1.00 video frame)
Interleave, preload duration : 500 ms


Screenshot:









Download - Wupload:


http://www.wupload.com/file/14414679...AC3.part01.rar
http://www.wupload.com/file/14414680...AC3.part02.rar
http://www.wupload.com/file/14414680...AC3.part03.rar
http://www.wupload.com/file/14414680...AC3.part04.rar
http://www.wupload.com/file/14414680...AC3.part05.rar
http://www.wupload.com/file/14414680...AC3.part06.rar
http://www.wupload.com/file/14414680...AC3.part07.rar
http://www.wupload.com/file/14414680...AC3.part08.rar
http://www.wupload.com/file/14414680...AC3.part09.rar





Download - FileServe:


http://www.fileserve.com/file/aAUHWU...AC3.part01.rar
http://www.fileserve.com/file/9ztWV6...AC3.part02.rar
http://www.fileserve.com/file/HcSJ5k...AC3.part03.rar
http://www.fileserve.com/file/68JpWj...AC3.part04.rar
http://www.fileserve.com/file/UF3tDZ...AC3.part05.rar
http://www.fileserve.com/file/x5MD5N...AC3.part06.rar
http://www.fileserve.com/file/m45Z9G...AC3.part07.rar
http://www.fileserve.com/file/YDtsB9...AC3.part08.rar
http://www.fileserve.com/file/c5DBc4...AC3.part09.rar