Henry's Crime (2011) DVDRiP XviD Rx

Click here to view full size


Video
ID : 0
Format : MPEG-4 Visual
Format profile : Advanced [email protected]
Format settings, BVOP : Yes
Format settings, QPel : No
Format settings, GMC : No warppoints
Format settings, Matrix : Custom
Codec ID : XVID
Codec ID/Hint : XviD
Duration : 1h 24mn
Bit rate : 1 110 Kbps
Width : 640 pixels
Height : 304 pixels
Display aspect ratio : 2.2:1
Frame rate : 23.976 fps
Color space : YUV
Chroma subsampling : 4:2:0
Bit depth : 8 bits
Scan type : Progressive
Bits/(Pixel*Frame) : 0.238
Stream size : 1398 MiB
Writing library : XviD 1.2.1 (UTC 2008-12-04)

Audio
ID : 1
Format : MPEG Audio
Format version : Version 1
Format profile : Layer 3
Codec ID : 55
Codec ID/Hint : MP3
Duration : 1h 24mn
Bit rate mode : Constant
Bit rate : 128 Kbps
Channel(s) : 2 channels
Sampling rate : 44.1 KHz
Stream size : 77.7 MiB (10%)
Alignment : Split accross interleaves
Interleave, duration : 42 ms (1.00 video frame)
Interleave, preload duration : 500 ms


SCREEN's:







Download - Wupload:


http://www.wupload.com/file/14414587...D.part.001.rar
http://www.wupload.com/file/14414587...D.part.002.rar
http://www.wupload.com/file/14414587...D.part.003.rar
http://www.wupload.com/file/14414587...D.part.004.rar
http://www.wupload.com/file/14414587...D.part.005.rar
http://www.wupload.com/file/14414587...D.part.006.rar
http://www.wupload.com/file/14414587...D.part.007.rar






Download - FileServe:


http://www.fileserve.com/file/zc94qc...D.part.001.rar
http://www.fileserve.com/file/nE4Qpy...D.part.002.rar
http://www.fileserve.com/file/vUC83T...D.part.003.rar
http://www.fileserve.com/file/GstSK7...D.part.004.rar
http://www.fileserve.com/file/CNBj88...D.part.005.rar
http://www.fileserve.com/file/FrpScQ...D.part.006.rar
http://www.fileserve.com/file/zuPSTW...D.part.007.rar