Fanboys (2008) DVDRip XviD AC3-MRX (Kingdom-Release)

http://www.imdb.com/title/tt0489049/
Language: English
90 min | AVI | 720x384 | 23.976 fps | AC3 - 48.0 KHz | 2.71 GB
Genre: Adventure | Comedy | Drama
Star Wars fans travel to Skywalker Ranch to steal an early copy of Star Wars: Episode I - The Phantom Menace.
iNFO :
Video
ID : 0
Format : MPEG-4 Visual
Format profile : Advanced [email protected]
Format settings, BVOP : 2
Format settings, QPel : No
Format settings, GMC : No warppoints
Format settings, Matrix : Default (H.263)
Muxing mode : Packed bitstream
Codec ID : XVID
Codec ID/Hint : XviD
Duration : 1h 29mn
Bit rate : 1 440 Kbps
Width : 720 pixels
Height : 384 pixels
Display aspect ratio : 1.875
Frame rate : 23.976 fps
Color space : YUV
Chroma subsampling : 4:2:0
Bit depth : 8 bits
Scan type : Progressive
Compression mode : Lossy
Bits/(Pixel*Frame) : 0.217
Stream size : 924 MiB (76%)
Writing library : XviD 63
Audio
ID : 1
Format : AC-3
Format/Info : Audio Coding 3
Mode extension : CM (complete main)
Codec ID : 2000
Duration : 1h 29mn
Bit rate mode : Constant
Bit rate : 448 Kbps
Channel(s) : 6 channels
Channel positions : Front: L C R, Side: L R, LFE
Sampling rate : 48.0 KHz
Bit depth : 16 bits
Compression mode : Lossy
Stream size : 287 MiB (24%)
Alignment : Split accross interleaves
Interleave, duration : 42 ms (1.00 video frame)
Interleave, preload duration : 500 ms


http://www.filesonic.com/file/189924...se).part01.rar
http://www.filesonic.com/file/189924...se).part02.rar
http://www.filesonic.com/file/189925...se).part03.rar

Wupload Mirrors

http://www.wupload.com/file/15137866...se).part01.rar
http://www.wupload.com/file/15138369...se).part02.rar
http://www.wupload.com/file/15139529...se).part03.rar