BKO Bangkok Knockout 2010 BDRip HCSUBS XVID AC3 HQ Hive-CM8

BKO Bangkok Knockout 2010 BDRip HCSUBS XVID AC3 HQ Hive-CM8
http://www.imdb.com/title/tt1770650/
Language: Thailand + Subs: english hardcoded for foreign parts only
1h 45mn | AVI | 720x400 | 23.976 fps | 384 kb/s | 48.0 KHz | 1.64 GB
Genre: Action
A group of fighters are selected, via competition, to go to Hollywood for a project... or that's what they believe. In fact, after winning they are drugged and kidnapped,
and forced to fight for their lives in a contest staged for the benefit of some extremely wealthy gamblers.
Source: Bluray
Encode:
firstly, this movie is a bit in english but mostly thai language.
I hardcoded english subs for the thai language spots.
The first 20 mins the plot is build up, during that time audio is either eng or thai with
eng subs, after that there are just fighting scenes with nearly no subs at all.
For those who dont like subs, well there arent that many in this movie.
There are some pretty crazy fighting scenes in it.
If you liked Ong Bak this movie shouldnt be missed.
enjoy
Video: 720x400 @bitrate 1800 2pass
Audio: Thai/Eng DTS to AC3 5.1 @384
Sample: yes, included
Subs: yes, english hardcoded for foreign parts only[/b]
General
Complete name : BKO.Bangkok.Knockout.2010.BDRip.HCSUBS.XVID.AC3.HQ.Hive-CM8.avi
Format : AVI
Format/Info : Audio Video Interleave
File size : 1.62 GiB
Duration : 1h 45mn
Overall bit rate : 2 193 Kbps
Writing application : Nandub v1.0rc2
Writing library : Nandub build 1853/release
Video
ID : 0
Format : MPEG-4 Visual
Format profile : Advanced [email protected]
Format settings, BVOP : 1
Format settings, QPel : Yes
Format settings, GMC : No warppoints
Format settings, Matrix : Default (H.263)
Muxing mode : Packed bitstream
Codec ID : XVID
Codec ID/Hint : XviD
Duration : 1h 45mn
Bit rate : 1 799 Kbps
Width : 720 pixels
Height : 400 pixels
Display aspect ratio : 16:9
Frame rate : 24.000 fps
Color space : YUV
Chroma subsampling : 4:2:0
Bit depth : 8 bits
Scan type : Progressive
Compression mode : Lossy
Bits/(Pixel*Frame) : 0.260
Stream size : 1.33 GiB (82%)
Writing library : XviD 1.2.1 (UTC 2008-12-04)
Audio
ID : 1
Format : AC-3
Format/Info : Audio Coding 3
Mode extension : CM (complete main)
Codec ID : 2000
Duration : 1h 45mn
Bit rate mode : Constant
Bit rate : 384 Kbps
Channel(s) : 6 channels
Channel positions : Front: L C R, Side: L R, LFE
Sampling rate : 48.0 KHz
Bit depth : 16 bits
Compression mode : Lossy
Delay relative to video : 24ms
Stream size : 291 MiB (18%)
Alignment : Split accross interleaves
Interleave, duration : 42 ms (1.00 video frame)
Interleave, preload duration : 500 ms


http://www.filesonic.com/file/189917...CM8.part03.rar
http://www.filesonic.com/file/189917...CM8.part02.rar
http://www.filesonic.com/file/189917...CM8.part01.rar
http://www.filesonic.com/file/189917...CM8.part04.rar

Wupload Mirrors

http://www.wupload.com/file/15128814...CM8.part03.rar
http://www.wupload.com/file/15128605...CM8.part02.rar
http://www.wupload.com/file/15128608...CM8.part01.rar
http://www.wupload.com/file/15034194...CM8.part04.rar