Mothers Day 2010 FESTiVAL DVDRip XviD-EXViD

Mothers Day 2010 FESTiVAL DVDRip XviD-EXViD
Mothers.Day.2010.FESTiVAL.DVDRip.XviD-EXViD

http://www.imdb.com/title/tt1434435/
Language: English
Subtitles: N/A
Date: 03.09.2011

Director: Darren Lynn Bousman

Genres: Crime | Horror | Thriller

Plot:
In the thriller arriving in theaters April 1, three brothers on the run from the law head for
home, only to discover that their mother lost the house in a foreclosure. Mother ingeniously
orchestrates her sons' escape, teaching the house's new owners and their guests a few lessons
along the way.

Stats:
Format : AVI
Format/Info : Audio Video Interleave
File size : 702 MiB
Duration : 1h 47mn
Overall bit rate : 911 Kbps
Writing application : VirtualDubMod 1.5.10.2 (build 2540/release)
Writing library : VirtualDubMod build 2540/release

Video
ID : 0
Format : MPEG-4 Visual
Format profile : Advanced [email protected]
Format settings, BVOP : Yes
Format settings, QPel : No
Format settings, GMC : No warppoints
Format settings, Matrix : Default (H.263)
Muxing mode : Packed bitstream
Codec ID : XVID
Codec ID/Hint : XviD
Duration : 1h 47mn
Bit rate : 769 Kbps
Width : 640 pixels
Height : 272 pixels
Display aspect ratio : 2.35:1
Frame rate : 25.000 fps
Color space : YUV
Chroma subsampling : 4:2:0
Bit depth : 8 bits
Scan type : Progressive
Bits/(Pixel*Frame) : 0.177
Stream size : 592 MiB (84%)
Writing library : XviD 62

Audio
ID : 1
Format : MPEG Audio
Format version : Version 1
Format profile : Layer 3
Mode : Joint stereo
Mode extension : MS Stereo
Codec ID : 55
Codec ID/Hint : MP3
Duration : 1h 47mn
Bit rate mode : Variable
Bit rate : 128 Kbps
Channel(s) : 2 channels
Sampling rate : 48.0 KHz
Stream size : 99.5 MiB (14%)
Alignment : Aligned on interleaves
Interleave, duration : 24 ms (0.60 video frame)
Interleave, preload duration : 142 ms
Writing library : LAME3.90.
Encoding settings : -m j -V 4 -q 2 -lowpass 17.6 --abr 128
Screenshot








======== DOWNLOAD LINK WUPLOAD: =========

http://www.wupload.com/file/14326034...XviD-EXViD.avi

========= DOWNLOAD LINK FILESERVE: =========

http://www.fileserve.com/file/uVdGDZ...XviD-EXViD.avi

========= DOWNLOAD LINK FILESONIC : =========


http://www.filesonic.com/file/186937...XviD-EXViD.avi