Bad Teacher (2011) R5 IMAGiNE (Film HOT 2011 - 1Link)

Bad Teacher (2011) R5 IMAGiNE
eneral:
Complete name: Bad.Teacher.2011.R5.IMAGiNE.avi
Format: AVI
Format/Info : Audio Video Interleave
File size: 699 MiB
Overall bit rate: 919 Kbps

Video:
ID: 0
Format: MPEG-4 Visual
Format profile: Advanced [email protected]
Format settings, BVOP: Yes
Format settings, QPel: No
Format settings, GMC: No warppoints
Format settings, Matrix: Default (MPEG)
Codec ID: XVID
Codec ID/Hint: XviD
Duration: 1h 46mn
Bit rate: 794 Kbps
Width: 640 pixels
Height: 272 pixels
Display aspect ratio: 2.35:1
Frame rate: 25.000 fps
Original frame rate: 23.976 fps
Color space: YUV
Chroma subsampling: 4:2:0
Bit depth: 8 bits
Scan type: Progressive
Bits/(Pixel*Frame): 0.182
Stream size: 603 MiB (86%)
Writing library: XviD 1.2.1 (UTC 2008-12-04)
Some teachers just don't give an F. For example, there's Elizabeth (Cameron Diaz). She's foul-mouthed, ruthless, and inappropriate. She drinks, she gets high, and she can't wait to marry her meal ticket and get out of her bogus day job. When she's dumped by her fiancé, she sets her plan in motion to win over a rich, handsome substitute (Justin Timberlake) - competing for his affections with an overly energetic colleague, Amy (Lucy Punch). When Elizabeth also finds herself fighting off the advances of a sarcastic, irreverent gym teacher (Jason Segel), the consequences of her wild and outrageous schemes give her students, her coworkers, and even herself an education like no other. - (C) Sony Pictures

Some teachers just don't give an F. For example, there's Elizabeth (Cameron Diaz). She's foul-mouthed, ruthless, and inappropriate. She drinks, she gets high, and she can't wait to marry her meal ticket and get out of her bogus day job. When she's dumped by her fiancé, she sets her plan in motion to win over a rich, handsome substitute (Justin Timberlake) - competing for his affections with an overly energetic colleague, Amy (Lucy Punch). When Elizabeth also finds herself fighting off the advances of a sarcastic, irreverent gym teacher (Jason Segel), the consequences of her wild and outrageous schemes give her students, her coworkers, and even herself an education like no other.
Audio:
ID: 1
Format: MPEG Audio
Format version: Version 1
Format profile: Layer 3
Codec ID: 55
Codec ID/Hint: MP3
Duration: 1h 46mn
Bit rate mode: Constant
Bit rate: 112 Kbps
Channel(s): 2 channels
Sampling rate: 48.0 KHz
Stream size: 85.1 MiB (12%)
Alignment: Split accross interleaves
Interleave, duration: 24 ms (0.60 video frame)

http://www.iv.pl/images/66105030272701288757.jpg
http://www.iv.pl/images/25791141071178115137.jpg
DOWNLOAD FILESONIC

http://www.filesonic.com/file/173450...R5.IMAGiNE.avi

If you buy account premium movies,you can download very fast
Refer premium link
http://www.filesonic.com/premium-ref/5064461
Thank you for downloading and buy account premium movies!
Wishing you moments of fun and pleasure!
Please welcome the next view of the Hollywood movie