The Witches Of Oz 2011 R5 XVID AC3 - SCR0N

Category: Movies / R5
Release Date: 07/10/11
Video Format: XviD
Size: 1.37 GB
Language: English
Audio Format: AC3

Additional Info: The Witches of Oz follows the exploits of the grown Dorothy Gale, now a successful children's book author, as she moves from Kansas to present day New York City. Dorothy quickly learns that her popular books are based on repressed childhood memories, and that the wonders of Oz are very, very real. When the Wicked Witch of the West shows up in Times Square, Dorothy must find the inner courage to stop her.

The Witches Of Oz 2011 R5 XVID AC3 - SCR0N
Description
#######################################################################
General:
#######################################################################

Complete name : The Witches Of Oz 2011 R5 XVID AC3 - SCR0N.avi
Format : AVI
Format/Info : Audio Video Interleave
File size : 1.37 GiB
Duration : 1h 25mn
Overall bit rate : 2 291 Kbps

#######################################################################
Video:
#######################################################################

ID : 0
Format : MPEG-4 Visual
Format profile : Advanced [email protected]
Format settings, BVOP : Yes
Format settings, QPel : No
Format settings, GMC : No warppoints
Format settings, Matrix : Default (H.263)
Codec ID : XVID
Codec ID/Hint : XviD
Duration : 1h 25mn
Bit rate : 1 835 Kbps
Width : 720 pixels

Height : 400 pixels
Display aspect ratio : 16:9
Frame rate : 25.000 fps
Color space : YUV
Chroma subsampling : 4:2:0
Bit depth : 8 bits
Scan type : Progressive
Bits/(Pixel*Frame) : 0.255
Stream size : 1.09 GiB (80%)


#######################################################################
Audio 1:
#######################################################################

ID : 1
Format : AC-3
Format/Info : Audio Coding 3
Mode extension : CM (complete main)
Codec ID : 2000
Duration : 1h 25mn
Bit rate mode : Constant
Bit rate : 448 Kbps
Channel(s) : 6 channels
Channel positions : Front: L C R, Side: L R, LFE
Sampling rate : 48.0 KHz
Bit depth : 16 bits
Stream size : 273 MiB (20%)
Alignment : Aligned on interleaves
Interleave, duration : 64 ms (1.60 video frames)
Interleave, preload duration : 192 ms



#######################################################################
Cast:
#######################################################################

Sean Astin as Frack
Billy Boyd as Nick Chopper
Jeffrey Combs as Frank
Brionne Davis as Simon
Ross Degraw as Cop #3
Chris Dell'Armo as Realtor
Monti Domingue as Amy
Liz Douglas as Em
Ross Edgar as Rick
Ashley Blythe Ellington as Betsy Bobbin



http://www.filesonic.com/file/173041....avi.part1.rar
http://www.filesonic.com/file/173041....avi.part2.rar

If you buy account premium movies,you can download very fast
Refer premium link
http://www.filesonic.com/premium-ref/5064461
Thank you for downloading and reading this article
Have fun to all !!!