Don't Be Afraid Of The Dark (2011) DVDRip XviD-MAX

t't Be Afraid of the Dark 2011 DvDrip Eng aXXo
Director: Troy Nixey | Writers: Guillermo del Toro (screenplay), Matthew Robbins | 831.86 MB
Genre : Horror | Thriller
Format : AVI
Format/Info : Audio Video Interleave
Format profile : OpenDML
Duration : 110 minutes
Overall bit rate : 1 206 Kbps
Writing application : VirtualDubMod 1.5.10.2 (build 2542/release)
Writing library : VirtualDubMod build 2542/release
Original source form : MAX TORRENTZ
Copyright : SIGISMUNT

Video
ID : 0
Format : MPEG-4 Visual
Format profile : [email protected]
Format settings, BVOP : Yes
Format settings, QPel : No
Format settings, GMC : No warppoints
Format settings, Matrix : Default (H.263)
Muxing mode : Packed bitstream
Codec ID : XVID
Codec ID/Hint : XviD
Duration : 110 minutes
Bit rate : 1 010 Kbps
Width : 640 pixels
Height : 272 pixels
Display aspect ratio : 2.35:1
Frame rate : 23.976 fps
Resolution : 24 bits
Colorimetry : 4:2:0
Scan type : Progressive
Bits/(Pixel*Frame) : 0.242
Stream size : 962 MiB (84%)
Writing library : XviD 57

Audio
ID : 1
Format : MPEG Audio
Format version : Version 1
Format profile : Layer 3
Codec ID : 55
Codec ID/Hint : MP3
Duration : 110 minutes
Bit rate mode : Constant
Bit rate : 192 Kbps
Channel(s) : 2 channels
Sampling rate : 48.0 KHz
Resolution : 16 bits
Stream size : 183 MiB (16%)
Alignment : Aligned on interleaves
Interleave, duration : 712 ms (17.08 video frames)
Interleave, preload duration : 216 ms
Writing library : LAME3.98.2

DOWNLOAD FILESONIC

http://www.filesonic.com/file/1719389071/Dont Be Afraid_of_the_Dark_2011_DvDrip_Eng_aXXo.avi.001
http://www.filesonic.com/file/1719392261/Dont Be Afraid_of_the_Dark_2011_DvDrip_Eng_aXXo.avi.002

If you buy account premium movies,you can download very fast
Refer premium link
http://www.filesonic.com/premium-ref/5064461
Thank you for downloading and reading this article
Have fun to all !!!