+ Viết bài mới
Hiện kết quả từ 1 tới 3 của 3
  1. #1
    Tham gia ngày
    Feb 2010
    Bài gửi
    17
    Thanks
    0
    Thanked 0 Times in 0 Posts
    Năng lực viết bài
    289

    Mặc định Kristen Bjorn - Pride 2 - Reload




    Không cần giới thiệu chắc các bạn cũng biết phim này.
    Host megashare.vnn.vn down tẹt ga luôn.

    MediaInfo
    General
    Complete name : Pride (Disc 2).avi
    Format : AVI
    Format/Info : Audio Video Interleave
    Format profile : OpenDML
    File size : 2.11 GiB
    Duration : 3h 9mn
    Overall bit rate : 1 589 Kbps
    Writing application : VirtualDubMod 1.5.4.1 (build 2066/release)
    Writing library : VirtualDubMod build 2066/release

    Video
    ID : 0
    Format : MPEG-4 Visual
    Format profile : Advanced [email protected]
    Format settings, BVOP : 3
    Format settings, QPel : No
    Format settings, GMC : No warppoints
    Format settings, Matrix : Default (H.263)
    Muxing mode : Packed bitstream
    Codec ID : XVID
    Codec ID/Hint : XviD
    Duration : 3h 9mn
    Bit rate : 1 445 Kbps
    Width : 720 pixels
    Height : 528 pixels
    Display aspect ratio : 4:3
    Frame rate : 29.970 fps
    Color space : YUV
    Chroma subsampling : 4:2:0
    Bit depth : 8 bits
    Scan type : Progressive
    Compression mode : Lossy
    Bits/(Pixel*Frame) : 0.127
    Stream size : 1.92 GiB (91%)
    Writing library : XviD 1.1.2 (UTC 2006-11-01)

    Audio
    ID : 1
    Format : MPEG Audio
    Format version : Version 1
    Format profile : Layer 3
    Mode : Joint stereo
    Mode extension : MS Stereo
    Codec ID : 55
    Codec ID/Hint : MP3
    Duration : 3h 9mn
    Bit rate mode : Constant
    Bit rate : 128 Kbps
    Channel(s) : 2 channels
    Sampling rate : 48.0 KHz
    Compression mode : Lossy
    Stream size : 174 MiB (8%)
    Alignment : Split accross interleaves
    Interleave, duration : 33 ms (1.00 video frame)
    Interleave, preload duration : 500 ms
    Writing library : LAME3.97



    Trailer
    http://kristenbjorn.com/files/movies...ide_short2.flv

    Link download đây
    21 link x 99MB + 1 link 64MB
    http:///HB8A7
    http:///HB8A8
    http:///HB8A9
    http:///HB8BA
    http:///HB8BB
    http:///HB8BC
    http:///HB8BD
    http:///HB8BE
    http:///HB8BF
    http:///HB8BG
    http:///HB8BH
    http:///HB8BI
    http:///HB8BJ
    http:///HB8BK
    http:///HB8BL
    http:///HB8BM
    http:///HB8BN
    http:///HB8BO
    http:///HB8BP
    http:///HB8BQ
    http:///HB8BR
    http:///HB8BS

    Chỉ cần đăng ký một acc free là có thể down tẹt ga roy :D
    Mong được sự ủng hộ.

  2. #2
    Tham gia ngày
    Aug 2011
    Bài gửi
    140
    Thanks
    0
    Thanked 0 Times in 0 Posts
    Năng lực viết bài
    244

    Mặc định Re: Kristen Bjorn - Pride 2 - Reload

    link ngon, thanks bạn nhiều

  3. #3
    Tham gia ngày
    Aug 2010
    Bài gửi
    2
    Thanks
    0
    Thanked 0 Times in 0 Posts
    Năng lực viết bài
    0

    Mặc định Re: Kristen Bjorn - Pride 2 - Reload

    ban co the huong dan chi tiet download bang account free kg? cam on nhieu...

+ Viết bài mới

Thread Information

Users Browsing this Thread

There are currently 1 users browsing this thread. (0 members and 1 guests)

Quyền viết bài

  • Bạn không thể gửi chủ đề mới
  • Bạn không thể gửi trả lời
  • Bạn không thể gửi file đính kèm
  • Bạn không thể sửa bài viết của mình
  •